<?xml version="1.0" standalone="no"?>
<!DOCTYPE svg PUBLIC "-//W3C//DTD SVG 1.1//EN" "http://www.w3.org/Graphics/SVG/1.1/DTD/svg11.dtd" >
<svg xmlns="http://www.w3.org/2000/svg">
<metadata></metadata>
<defs>
<font id="source_code_proregular" horiz-adv-x="1228" >
<font-face units-per-em="2048" ascent="1536" descent="-512" />
<missing-glyph horiz-adv-x="500" />
<glyph horiz-adv-x="0" />
<glyph horiz-adv-x="682" />
<glyph horiz-adv-x="0" />
<glyph horiz-adv-x="0" />
<glyph unicode="&#xd;" />
<glyph unicode=" " />
<glyph unicode="!" d="M465 135q0 72 44 114t105 42t105.5 -42t44.5 -114q0 -74 -44 -117t-106 -43q-61 0 -105 43t-44 117zM532 1372h164l-4 -192l-20 -705h-115l-20 705z" />
<glyph unicode="&#x22;" d="M269 1407h225l-4 -225l-51 -461h-115l-51 461zM738 1407h225l-4 -225l-51 -461h-115l-51 461z" />
<glyph unicode="#" d="M178 418v117h176l39 303h-174v118h187l49 375h108l-47 -375h270l50 375h108l-47 -375h166v-118h-178l-39 -303h176v-117h-191l-49 -418h-110l51 418h-272l-50 -418h-110l49 418h-162zM465 535h270l39 303h-272z" />
<glyph unicode="$" d="M174 231l80 117q78 -55 171 -97t210 -42q123 0 185.5 50t62.5 128q0 63 -48.5 105.5t-120 75t-156.5 63.5t-156.5 72.5t-120 100t-48.5 148.5q0 129 91.5 211t240.5 99v270h123v-268q113 -10 188.5 -53.5t137.5 -102.5l-90 -98q-35 27 -67 48t-66.5 36.5t-75.5 23.5 t-92 8q-104 0 -165 -46t-61 -124q0 -57 48.5 -94t121 -67.5t156.5 -61.5t156.5 -74t121 -104t48.5 -156q0 -66 -26 -122t-74 -98t-114.5 -69.5t-146.5 -35.5v-299h-123v297q-115 10 -217 55t-174 104z" />
<glyph unicode="%" d="M57 158l375 385l68 -62l-342 -415zM58 999q0 160 79.5 246t204.5 86t205 -86t80 -246q0 -162 -80 -252t-205 -90t-204.5 90.5t-79.5 251.5zM183 999q0 -123 46.5 -181t112.5 -58t113 58.5t47 180.5q0 123 -47 177.5t-113 54.5t-112.5 -54.5t-46.5 -177.5zM604 317 q0 160 79.5 246t204.5 86t205 -86t80 -246q0 -162 -80 -252t-205 -90t-204.5 90.5t-79.5 251.5zM729 317q0 -123 46.5 -181t112.5 -58t113 58.5t47 180.5q0 123 -47 177.5t-113 54.5t-112.5 -54.5t-46.5 -177.5zM729 862l342 416l100 -92l-374 -385z" />
<glyph unicode="&#x26;" d="M86 348q0 66 20.5 121t56.5 101t81 86t94 77q-43 84 -66.5 165t-23.5 153q0 68 21.5 125t59.5 100t92 67.5t122 24.5q125 0 192.5 -73.5t67.5 -192.5q0 -66 -25.5 -119t-66.5 -101t-92.5 -90t-104.5 -83q66 -104 151 -200.5t177 -176.5q57 82 99 179t71 214h155 q-37 -133 -90 -254t-127 -227q123 -94 232 -129l-47 -140q-133 41 -281 154q-74 -72 -163 -113t-204 -41q-90 0 -163.5 28t-126 77t-82 117.5t-29.5 150.5zM250 358q0 -55 20.5 -101t55 -79t82 -50t100.5 -17q63 0 122.5 28.5t112.5 77.5q-98 86 -185 188.5t-157 212.5 q-66 -57 -108.5 -119.5t-42.5 -140.5zM393 1053q0 -55 16.5 -114.5t45.5 -121.5q43 31 80.5 62.5t67.5 65.5t46.5 72t16.5 83q0 59 -28 103t-95 44q-72 0 -111 -55t-39 -139z" />
<glyph unicode="'" d="M502 1407h225l-4 -225l-51 -461h-115l-51 461z" />
<glyph unicode="(" d="M426 569q0 297 124 530.5t337 399.5l92 -86q-207 -174 -304 -379t-97 -465t97 -464.5t304 -378.5l-92 -86q-213 166 -337 399t-124 530z" />
<glyph unicode=")" d="M250 -274q207 174 304 378.5t97 464.5t-97 465t-304 379l92 86q213 -166 337 -399.5t124 -530.5t-124 -530.5t-337 -398.5z" />
<glyph unicode="*" d="M213 1124l33 95l297 -84l22 323h99l22 -321l297 82l33 -95l-283 -127l178 -290l-86 -60l-211 268l-211 -268l-86 60l179 290z" />
<glyph unicode="+" d="M174 571v127h373v400h135v-400h373v-127h-373v-399h-135v399h-373z" />
<glyph unicode="," d="M403 -330q127 57 190.5 138t68.5 204q-10 -2 -19.5 -3t-19.5 -1q-66 0 -113 38t-47 116q0 76 49 115.5t115 39.5q92 0 138 -70.5t46 -191.5q0 -180 -95 -304t-265 -187z" />
<glyph unicode="-" d="M274 526v148h680v-148h-680z" />
<glyph unicode="." d="M449 147q0 78 48 126.5t117 48.5q70 0 118 -48.5t48 -126.5t-48 -125t-118 -47t-117.5 47t-47.5 125z" />
<glyph unicode="/" d="M203 -328l671 1782h152l-672 -1782h-151z" />
<glyph unicode="0" d="M145 657q0 330 125 502t344 172t344 -172t125 -502q0 -328 -125 -505t-344 -177t-344 177.5t-125 504.5zM303 657q0 -281 87 -413.5t224 -132.5t224.5 133t87.5 413q0 141 -22.5 242.5t-64.5 168.5t-99.5 97.5t-125.5 30.5t-125 -30.5t-99 -97.5t-64.5 -168t-22.5 -243z M487 672q0 63 38 99t89 36t89 -36t38 -99q0 -66 -38 -101.5t-89 -35.5t-89 35.5t-38 101.5z" />
<glyph unicode="1" d="M201 0v139h370v963h-278v108q104 16 182 40t139 57h125v-1168h342v-139h-880z" />
<glyph unicode="2" d="M141 1133q88 90 189.5 144t240.5 54q98 0 177 -27.5t134.5 -77.5t85 -122t29.5 -158q0 -92 -44 -185t-123.5 -192.5t-190.5 -207t-244 -228.5q59 4 122 8t122 4h430v-145h-919v100q166 147 293.5 266t214.5 218.5t132.5 185.5t45.5 168q0 113 -70 184.5t-215 71.5 q-92 0 -171 -46t-142 -112z" />
<glyph unicode="3" d="M117 160l86 110q66 -61 157 -108t218 -47q68 0 125 17.5t99 48t65.5 74.5t23.5 99q0 57 -25.5 105.5t-83 83.5t-147.5 53t-219 18v129q117 0 197.5 18.5t132 51.5t75 78t23.5 96q0 96 -73 151.5t-193 55.5q-92 0 -174 -37t-148 -96l-90 106q82 72 186.5 118t231.5 46 q92 0 171 -22.5t137 -64.5t91 -103.5t33 -141.5q0 -119 -78 -194.5t-201 -116.5v-8q66 -14 124.5 -42t103.5 -70t70.5 -97t25.5 -123q0 -86 -37 -155.5t-101.5 -117.5t-150.5 -74t-184 -26q-170 0 -285 56.5t-186 128.5z" />
<glyph unicode="4" d="M80 360v113l653 834h180v-811h203v-136h-203v-360h-159v360h-674zM266 496h488v405q2 53 4 115.5t6 116.5h-10q-31 -47 -66 -95.5t-67 -95.5z" />
<glyph unicode="5" d="M115 154l84 110q33 -29 69.5 -56.5t80.5 -48t98.5 -32.5t119.5 -12q70 0 130.5 21.5t105.5 60.5t70.5 94t25.5 123q0 135 -87 210.5t-234 75.5q-82 0 -139.5 -20.5t-127.5 -58.5l-90 57l43 629h740v-146h-590l-35 -387q57 25 111.5 39t130.5 14q94 0 176 -24.5t142 -74.5 t95 -127t35 -183t-40 -188.5t-107.5 -138.5t-154.5 -86t-181 -30q-88 0 -159 15.5t-127 40t-102 56.5t-83 67z" />
<glyph unicode="6" d="M158 604q0 197 45 335t120.5 225t175 127t206.5 40q121 0 210 -40t154 -99l-94 -105q-51 47 -119 75t-141 28q-78 0 -149.5 -28.5t-126 -94.5t-88.5 -173.5t-36 -264.5q78 78 175.5 124t195.5 46q90 0 165 -25.5t129 -76t84 -126t30 -176.5q0 -94 -36 -171t-95.5 -132 t-138.5 -86t-167 -31q-106 0 -197 39t-159 118t-105.5 196.5t-37.5 275.5zM322 496q18 -190 105 -288.5t230 -98.5q57 0 108.5 20.5t88.5 58t58.5 90t21.5 117.5q0 135 -71.5 206t-207.5 71q-78 0 -163.5 -40t-169.5 -136z" />
<glyph unicode="7" d="M143 1161v146h947v-105q-129 -147 -213 -282.5t-135.5 -275.5t-74 -295.5t-28.5 -348.5h-176q8 186 34.5 339t78 290t130 266t191.5 266h-754z" />
<glyph unicode="8" d="M139 334q0 68 24.5 121t63.5 96t89.5 74.5t103.5 56.5v8q-82 51 -140.5 126t-58.5 179q0 76 30 137.5t84 105.5t128 68.5t162 24.5q96 0 170.5 -25.5t127 -71.5t80 -110.5t27.5 -140.5q0 -92 -58.5 -173t-140.5 -138v-8q53 -27 100.5 -58t82.5 -69.5t54 -91t19 -121.5 q0 -74 -31.5 -137.5t-91 -110.5t-146.5 -74t-200 -27q-111 0 -199.5 27t-150 75t-95.5 113.5t-34 143.5zM293 350q0 -111 89 -180.5t241 -69.5q147 0 225 63.5t78 166.5q0 68 -32 113.5t-87 78.5t-130 58.5t-161 54.5q-96 -53 -159.5 -120t-63.5 -165zM375 995 q0 -59 26.5 -101t73.5 -75t109.5 -58t136.5 -48q164 119 164 262q0 98 -67.5 164.5t-196.5 66.5q-111 0 -178.5 -57t-67.5 -154z" />
<glyph unicode="9" d="M137 911q0 94 35 171t95.5 132.5t139 86t164.5 30.5q106 0 198.5 -39t160 -117.5t105.5 -196.5t38 -276q0 -197 -46 -335t-122 -225t-174 -127t-205 -40q-121 0 -210 39t-154 99l94 106q49 -47 116.5 -75.5t143.5 -28.5q78 0 148.5 28.5t125 95t87 173t36.5 264.5 q-80 -78 -175 -123t-195 -45q-90 0 -165 25.5t-128 75.5t-83 126t-30 176zM297 911q0 -135 70.5 -205.5t207.5 -70.5q76 0 162 40t172 134q-20 193 -105 291t-231 98q-59 0 -109 -20.5t-87 -58.5t-58.5 -91t-21.5 -117z" />
<glyph unicode=":" d="M449 147q0 78 48 126.5t117 48.5q70 0 118 -48.5t48 -126.5t-48 -125t-118 -47t-117.5 47t-47.5 125zM449 880q0 78 48 126.5t117 48.5q70 0 118 -48.5t48 -126.5t-48 -125t-118 -47t-117.5 47t-47.5 125z" />
<glyph unicode=";" d="M403 -330q127 57 190.5 138t68.5 204q-10 -2 -19.5 -3t-19.5 -1q-66 0 -113 38t-47 116q0 76 49 115.5t115 39.5q92 0 138 -70.5t46 -191.5q0 -180 -95 -304t-265 -187zM449 880q0 78 48 126.5t117 48.5q70 0 118 -48.5t48 -126.5t-48 -125t-118 -47t-117.5 47t-47.5 125 z" />
<glyph unicode="&#x3c;" d="M246 575v127l764 519v-162l-617 -416v-8l617 -416v-162z" />
<glyph unicode="=" d="M174 354v127h881v-127h-881zM174 790v127h881v-127h-881z" />
<glyph unicode="&#x3e;" d="M219 57v162l617 416v8l-617 416v162l764 -519v-127z" />
<glyph unicode="?" d="M223 1231q70 72 164 119t213 47q86 0 155.5 -22.5t120 -64.5t78 -100.5t27.5 -132.5q0 -68 -27.5 -120t-67.5 -96t-86 -85t-84 -86t-59.5 -97t-11.5 -118h-149q-12 74 6 131.5t54 104.5t81 88t85 81t66.5 83t26.5 96q0 86 -56.5 142t-168.5 56q-78 0 -144.5 -31.5 t-121.5 -86.5zM436 135q0 72 44 114t106 42q61 0 105 -42t44 -114q0 -74 -44 -117t-105 -43t-105.5 43t-44.5 117z" />
<glyph unicode="@" d="M100 512q0 197 46.5 344.5t128 245.5t191 148t236.5 50q106 0 184.5 -36.5t129.5 -102t76.5 -154.5t25.5 -194v-608h-102l-15 119h-8q-45 -57 -117.5 -100.5t-152.5 -43.5q-55 0 -103.5 18.5t-84 53.5t-56 85t-20.5 112q0 158 139 237.5t401 112.5v28q0 74 -17 139.5 t-54 114.5t-95.5 78t-138.5 29q-92 0 -176 -43t-148.5 -128t-102.5 -213t-38 -298q0 -164 37 -292t100.5 -216t149.5 -134t186 -46q92 0 161 23.5t128 68.5l58 -92q-80 -55 -164 -84t-187 -29q-121 0 -229.5 52.5t-190 153.5t-130 252.5t-48.5 348.5zM594 453q0 -72 44 -113 t120 -41q115 0 229 131v258q-213 -29 -303 -85t-90 -150z" />
<glyph unicode="A" d="M66 0l452 1343h193l452 -1343h-180l-127 410h-487l-129 -410h-174zM412 547h401l-63 205q-35 113 -68 224t-66 228h-8q-33 -117 -65.5 -228.5t-67.5 -223.5z" />
<glyph unicode="B" d="M211 0v1343h369q102 0 187 -18t145.5 -57t94 -101.5t33.5 -150.5q0 -100 -58 -181t-177 -112v-8q147 -23 229 -103t82 -219q0 -98 -37 -172t-103.5 -123t-159.5 -73.5t-206 -24.5h-399zM383 135h203q174 0 268 64.5t94 201.5q0 125 -92 183.5t-270 58.5h-203v-508z M383 770h168q172 0 246.5 59.5t74.5 171.5q0 111 -78.5 159t-234.5 48h-176v-438z" />
<glyph unicode="C" d="M135 672q0 162 44 291t124 219t190.5 138t241.5 48q123 0 215 -49t152 -115l-96 -108q-53 55 -119 89t-152 34q-96 0 -175 -38t-134 -109t-85 -171t-30 -225q0 -127 30 -228.5t85 -173t134 -110.5t175 -39q92 0 164 39t137 110l99 -104q-80 -92 -180.5 -143.5 t-229.5 -51.5q-127 0 -234.5 47.5t-186.5 136.5t-124 219t-45 294z" />
<glyph unicode="D" d="M174 0v1343h328q305 0 463.5 -172t158.5 -493q0 -160 -40 -286t-117.5 -213t-192.5 -133t-264 -46h-336zM344 139h148q229 0 342.5 141.5t113.5 397.5t-113.5 391t-342.5 135h-148v-1065z" />
<glyph unicode="E" d="M236 0v1343h829v-143h-657v-422h555v-145h-555v-488h677v-145h-849z" />
<glyph unicode="F" d="M276 0v1343h822v-143h-652v-455h551v-143h-551v-602h-170z" />
<glyph unicode="G" d="M109 672q0 162 44 292t122.5 219t188 137t241.5 48q68 0 123 -14.5t101 -38t82 -52t64 -59.5l-96 -108q-49 53 -112.5 88t-161.5 35q-94 0 -171 -38t-132.5 -109t-85 -171t-29.5 -225q0 -127 27.5 -228.5t79.5 -173t130 -110.5t176 -39q72 0 133.5 21.5t100.5 58.5v350 h-268v141h426v-565q-66 -66 -168.5 -111t-233.5 -45q-127 0 -233.5 47.5t-184 136.5t-120.5 219t-43 294z" />
<glyph unicode="H" d="M162 0v1343h172v-563h561v563h172v-1343h-172v633h-561v-633h-172z" />
<glyph unicode="I" d="M195 0v145h333v1055h-333v143h839v-143h-334v-1055h334v-145h-839z" />
<glyph unicode="J" d="M166 199l110 102q59 -90 133 -133t152 -43q145 0 212 77t67 242v758h-564v144h734v-916q0 -94 -22.5 -177t-75 -144.5t-137.5 -97.5t-210 -36q-115 0 -222 53.5t-177 170.5z" />
<glyph unicode="K" d="M201 0v1343h172v-673h6l565 673h193l-424 -512l473 -831h-191l-389 698l-233 -272v-426h-172z" />
<glyph unicode="L" d="M274 0v1343h168v-1198h666v-145h-834z" />
<glyph unicode="M" d="M166 0v1343h188l191 -571l67 -217h9l65 217l188 571h189v-1343h-145v756q0 41 2 96t5 111.5t6 110.5t7 95h-6l-88 -286l-185 -518h-92l-184 518l-90 286h-6q2 -41 6 -95t8 -110.5t6 -111.5t2 -96v-756h-143z" />
<glyph unicode="N" d="M170 0v1343h174l436 -847l135 -275h5q-4 100 -13.5 210t-9.5 216v696h162v-1343h-174l-436 848l-136 274h-4q4 -104 13.5 -209.5t9.5 -210.5v-702h-162z" />
<glyph unicode="O" d="M98 678q0 162 38 290t106.5 217t163 136t208.5 47q113 0 208.5 -48t164 -137t106 -217t37.5 -288q0 -162 -37.5 -292t-106 -221t-164 -140.5t-208.5 -49.5q-115 0 -209 49.5t-162.5 140.5t-106.5 221t-38 292zM274 678q0 -127 25 -228.5t69 -174t106 -111.5t140 -39 q76 0 139.5 39t107.5 111.5t68.5 174t24.5 228.5q0 125 -24.5 225.5t-68.5 170t-107.5 107.5t-139.5 38q-78 0 -140 -38t-106 -107.5t-69 -170t-25 -225.5z" />
<glyph unicode="P" d="M209 0v1343h412q111 0 202.5 -20t156 -66.5t100.5 -122t36 -186.5q0 -106 -36 -184t-101.5 -129t-156.5 -77t-201 -26h-242v-532h-170zM379 672h219q178 0 263 66.5t85 209.5q0 145 -87 201.5t-261 56.5h-219v-534z" />
<glyph unicode="Q" d="M100 678q0 162 37 290t104.5 217t162 137t208.5 48q113 0 207 -48t162 -137t104.5 -218t36.5 -289q0 -143 -29.5 -262t-83 -208t-130 -146.5t-168.5 -75.5q35 -86 110.5 -130t179.5 -44q31 0 56.5 6t44.5 14l31 -137q-33 -12 -70 -20.5t-82 -8.5q-178 0 -289.5 90 t-163.5 228q-96 16 -175 72.5t-135 145.5t-87 209.5t-31 266.5zM274 678q0 -125 24 -227.5t68 -175t106.5 -112.5t139.5 -40q76 0 138.5 40t106.5 112.5t67.5 175t23.5 227.5t-23.5 226.5t-67.5 172t-106.5 108.5t-138.5 38q-78 0 -140 -38t-106 -108.5t-68 -172t-24 -226.5 z" />
<glyph unicode="R" d="M205 0v1343h418q102 0 188 -19t148.5 -64.5t97.5 -117t35 -175.5q0 -158 -82 -252t-219 -129l342 -586h-195l-324 567h-239v-567h-170zM375 707h223q158 0 241 64.5t83 195.5q0 133 -83 186t-241 53h-223v-499z" />
<glyph unicode="S" d="M137 174l103 119q76 -76 176 -122t211 -46q143 0 221 60.5t78 158.5q0 51 -18.5 87t-51.5 61.5t-77 46t-95 43.5l-192 84q-51 20 -102.5 48.5t-93.5 69.5t-68.5 97.5t-26.5 130.5q0 76 32.5 141.5t91 113.5t139.5 74.5t177 26.5q127 0 233.5 -46t180.5 -120l-90 -110 q-66 59 -145 93t-179 34q-123 0 -194.5 -52.5t-71.5 -144.5q0 -49 21.5 -83t55 -59.5t76.5 -44t86 -36.5l189 -82q61 -25 115.5 -56.5t94.5 -73.5t63.5 -98.5t23.5 -130.5q0 -80 -33 -149.5t-94.5 -121.5t-149.5 -82t-198 -30q-147 0 -271.5 53.5t-216.5 145.5z" />
<glyph unicode="T" d="M86 1200v143h1057v-143h-443v-1200h-172v1200h-442z" />
<glyph unicode="U" d="M162 508v835h172v-839q0 -104 21.5 -177t59.5 -117t89 -64.5t112 -20.5t112.5 20.5t90.5 64.5t60.5 116.5t21.5 177.5v839h166v-835q0 -145 -34 -245.5t-93 -165t-142 -93.5t-182 -29q-98 0 -182 29t-144.5 93.5t-94 164.5t-33.5 246z" />
<glyph unicode="V" d="M88 1343h180l217 -725q35 -121 64 -223t65 -221h9q18 59 34.5 113.5t32 108t30.5 108.5t32 114l215 725h174l-426 -1343h-199z" />
<glyph unicode="W" d="M20 1346h170l109 -844q4 -86 13.5 -167t15.5 -165h6q23 84 44 166t42 166l141 495h121l141 -495q18 -82 40 -165t44 -167h8q6 84 14.5 166t14.5 166l103 844h161l-198 -1346h-189l-153 563q-14 59 -26.5 120.5t-23.5 121.5h-6q-12 -59 -24.5 -120.5t-28.5 -121.5 l-147 -563h-185z" />
<glyph unicode="X" d="M111 0l401 694l-375 649h189l188 -344q27 -47 51.5 -91t57.5 -103h8q29 59 50 103t46 91l184 344h181l-375 -657l401 -686h-188l-203 362q-29 49 -56.5 101.5t-62.5 114.5h-8q-29 -61 -55.5 -113.5t-52.5 -102.5l-201 -362h-180z" />
<glyph unicode="Y" d="M78 1343h180l203 -399q39 -78 75.5 -154.5t77.5 -158.5h9q41 82 79.5 159.5t77.5 155.5l195 397h176l-451 -864v-479h-172v479z" />
<glyph unicode="Z" d="M133 0v102l752 1100h-686v144h895v-103l-754 -1098h764v-145h-971z" />
<glyph unicode="[" d="M463 -311v1761h565v-98h-432v-1565h432v-98h-565z" />
<glyph unicode="\" d="M203 1454h151l672 -1782h-152z" />
<glyph unicode="]" d="M203 -213h430v1565h-430v98h565v-1761h-565v98z" />
<glyph unicode="^" d="M227 582l314 790h147l313 -790h-147l-135 360l-101 272h-8l-100 -272l-135 -360h-148z" />
<glyph unicode="_" d="M123 -141h983v-146h-983v146z" />
<glyph unicode="`" d="M379 1477h184l185 -303h-130z" />
<glyph unicode="a" d="M166 258q0 84 40 146.5t127 107.5t224 73.5t330 45.5q-2 51 -16.5 96t-45 79t-81 54.5t-121.5 20.5q-98 0 -188.5 -38t-160.5 -81l-65 115q37 25 87 50t106.5 45.5t120 34t128.5 13.5q205 0 304.5 -111.5t99.5 -298.5v-610h-137l-15 135h-6q-84 -66 -185.5 -113 t-207.5 -47q-70 0 -131.5 19.5t-107.5 55.5t-72.5 88t-26.5 120zM330 270q0 -43 18.5 -72.5t48 -49t69.5 -28.5t83 -9q86 0 169 37.5t169 109.5v262q-160 -12 -267.5 -34.5t-172 -54.5t-91 -72t-26.5 -89z" />
<glyph unicode="b" d="M190 0v1458h168v-397l-4 -193q72 70 161 111t177 41q100 0 178 -36t130.5 -102.5t79 -159.5t26.5 -208q0 -127 -37 -227.5t-99.5 -170t-144.5 -105.5t-170 -36q-72 0 -154.5 36t-154.5 100h-6l-14 -111h-136zM358 233q72 -63 144.5 -89.5t126.5 -26.5q66 0 121 27.5 t96 77.5t63.5 124t22.5 166q0 82 -16.5 149.5t-50.5 115.5t-87 75t-127 27q-66 0 -140.5 -36t-152.5 -114v-496z" />
<glyph unicode="c" d="M164 496q0 125 44 222t119.5 164.5t177 102.5t214.5 35q123 0 212 -43t150 -103l-84 -108q-61 53 -127.5 84t-144.5 31q-86 0 -157.5 -28t-122 -79t-79 -121.5t-28.5 -156.5t27.5 -156t78 -120t121 -77.5t156.5 -27.5q92 0 169 35.5t140 89.5l74 -109 q-82 -74 -183.5 -115t-211.5 -41q-117 0 -216.5 35t-173 101.5t-114.5 164t-41 220.5z" />
<glyph unicode="d" d="M123 496q0 121 38 218t100.5 164.5t144 104.5t169.5 37q92 0 162 -35t140 -94l-7 184v383h168v-1458h-139l-14 131h-6q-61 -63 -146.5 -109.5t-177.5 -46.5q-98 0 -177 35t-136.5 101.5t-88 163t-30.5 221.5zM297 498q0 -180 77 -280.5t216 -100.5q147 0 280 149v496 q-68 63 -132 90t-130 27t-122 -28t-98 -78t-66.5 -119.5t-24.5 -155.5z" />
<glyph unicode="e" d="M141 496q0 123 43 220t114 164.5t162 103.5t187 36q106 0 190.5 -34t142.5 -95.5t89 -147.5t31 -190q0 -55 -6 -92h-779q10 -162 113.5 -256t267.5 -94q88 0 161 24.5t142 67.5l60 -111q-74 -47 -168 -82t-215 -35q-111 0 -208 36t-170 102.5t-115 163t-42 219.5z M313 571h631q0 154 -78 235t-217 81q-61 0 -117.5 -21.5t-101.5 -61.5t-76.5 -98.5t-40.5 -134.5z" />
<glyph unicode="f" d="M211 858v127l285 10v84q0 182 97 293t304 111q147 0 287 -58l-39 -127q-61 29 -113.5 38.5t-118.5 9.5q-135 0 -193 -69t-58 -192v-90h417v-137h-417v-858h-166v858h-285z" />
<glyph unicode="g" d="M147 -182q0 59 42 116.5t122 104.5v8q-41 23 -71.5 61.5t-30.5 102.5q0 47 30.5 97t88.5 89v9q-51 39 -87 103t-36 155q0 82 31.5 147.5t85 111.5t124 71.5t150.5 25.5q82 0 147 -25h412v-129h-266q35 -37 63.5 -90t28.5 -119q0 -80 -29.5 -143t-82 -107.5t-123 -68 t-150.5 -23.5q-39 0 -83 9.5t-85 27.5q-78 -49 -78 -114q0 -59 54.5 -87t152.5 -28h223q193 0 286 -53.5t93 -180.5q0 -70 -39 -133t-110.5 -110t-174 -76t-229.5 -29q-219 0 -339 72t-120 205zM293 -166q0 -78 83 -127t242 -49q86 0 156 17.5t119 46t74.5 65.5t25.5 76 q0 72 -56 96.5t-171 24.5h-195q-43 0 -80.5 3t-70.5 13q-72 -39 -99.5 -81t-27.5 -85zM367 664q0 -109 67.5 -172.5t161.5 -63.5q96 0 162.5 63.5t66.5 172.5q0 51 -18.5 94t-49 73.5t-72.5 48t-89 17.5t-89 -17.5t-73 -48t-49 -73.5t-18 -94z" />
<glyph unicode="h" d="M190 0v1458h168v-397l-8 -236q80 84 170 139.5t207 55.5q178 0 261 -101.5t83 -300.5v-618h-168v596q0 141 -53 209.5t-176 68.5q-45 0 -83 -11t-75 -33.5t-76 -56.5t-82 -79v-694h-168z" />
<glyph unicode="i" d="M184 858v137h631v-995h-168v858h-463zM578 1329q0 59 37.5 95t97.5 36q57 0 96 -35.5t39 -95.5q0 -59 -39 -94t-96 -35q-59 0 -97 35t-38 94z" />
<glyph unicode="j" d="M113 -377l55 125q53 -27 111.5 -41t115.5 -14q74 0 123 18.5t78 53t40 85t11 113.5v895h-463v137h631v-1020q0 -92 -20.5 -168.5t-68.5 -133t-128 -87t-201 -30.5q-78 0 -151.5 19t-132.5 48zM578 1329q0 59 37.5 95t97.5 36q57 0 96 -35.5t39 -95.5q0 -59 -39 -94 t-96 -35q-59 0 -97 35t-38 94z" />
<glyph unicode="k" d="M217 0v1458h168v-987l6 2l539 522h192l-397 -395l451 -600h-189l-366 492l-236 -226v-266h-168z" />
<glyph unicode="l" d="M166 1321v137h508v-1136q0 -111 52 -159t142 -48q82 0 189 47l43 -127q-68 -25 -127.5 -42.5t-141.5 -17.5q-160 0 -242.5 90.5t-82.5 268.5v987h-340z" />
<glyph unicode="m" d="M123 0v995h131l14 -131h6q37 70 87.5 113t136.5 43q152 0 188 -172q45 78 98.5 125t137.5 47q104 0 160.5 -79t56.5 -228v-713h-162v698q0 176 -109 176q-53 0 -92 -37.5t-78 -115.5v-721h-135v698q0 176 -112 176q-53 0 -90 -37.5t-76 -115.5v-721h-162z" />
<glyph unicode="n" d="M190 0v995h140l14 -170h8q78 84 168 139.5t207 55.5q178 0 261 -101.5t83 -300.5v-618h-168v596q0 141 -53 209.5t-176 68.5q-45 0 -83 -11t-75 -33.5t-76 -56.5t-82 -79v-694h-168z" />
<glyph unicode="o" d="M123 496q0 125 40 222t107.5 164.5t156.5 102.5t187 35t187.5 -35t157 -102.5t107.5 -164.5t40 -222q0 -123 -40 -220.5t-107.5 -164t-156.5 -101.5t-188 -35q-98 0 -187 35t-156.5 101.5t-107.5 164t-40 220.5zM297 496q0 -86 22.5 -156t64.5 -120t100.5 -77.5 t129.5 -27.5q72 0 130.5 27.5t100.5 77.5t64.5 120t22.5 156t-22.5 156.5t-64.5 121.5t-100.5 79t-130.5 28t-130 -28t-100 -79t-64.5 -121.5t-22.5 -156.5z" />
<glyph unicode="p" d="M190 -420v1415h140l14 -127h6q70 66 161 109t183 43q100 0 177 -36t129.5 -102.5t79 -159.5t26.5 -210q0 -127 -37 -226.5t-99.5 -169t-144.5 -105.5t-172 -36q-70 0 -150.5 34t-148.5 95l4 -188v-336h-168zM358 233q72 -63 143.5 -89.5t123.5 -26.5q135 0 221 104.5 t86 290.5q0 82 -16.5 149.5t-50.5 115.5t-87 75t-127 27q-66 0 -140.5 -36t-152.5 -114v-496z" />
<glyph unicode="q" d="M123 496q0 121 38 218t100.5 164.5t144 104.5t169.5 37q92 0 164 -35t144 -100h6l14 110h135v-1415h-168v367l9 180q-66 -63 -149 -107.5t-175 -44.5q-98 0 -177 35t-136.5 101.5t-88 163t-30.5 221.5zM297 498q0 -180 77 -280.5t216 -100.5q147 0 280 149v496 q-68 63 -132 90t-130 27t-122 -28t-98 -78t-66.5 -119.5t-24.5 -155.5z" />
<glyph unicode="r" d="M299 0v995h139l15 -235h6q78 121 191.5 190.5t252.5 69.5q55 0 101.5 -9.5t93.5 -31.5l-35 -145q-53 18 -90 26t-96 8q-113 0 -216.5 -64.5t-193.5 -219.5v-584h-168z" />
<glyph unicode="s" d="M147 131l82 111q84 -61 180.5 -98.5t231.5 -37.5t200.5 45.5t65.5 110.5q0 57 -70.5 102.5t-252.5 90.5q-78 18 -146.5 44.5t-120 62.5t-82 79t-30.5 96q0 59 26.5 111.5t78.5 90.5t131 59.5t182 21.5q113 0 219 -38t180 -89l-82 -109q-66 47 -145.5 76t-171.5 29 q-70 0 -117 -11.5t-76 -31t-41 -46t-12 -55.5q0 -61 84 -101t219 -75q203 -51 300 -116.5t97 -180.5q0 -61 -28.5 -114.5t-85 -94t-139.5 -64.5t-189 -24q-147 0 -271 46.5t-217 109.5z" />
<glyph unicode="t" d="M141 858v127l287 10l23 279h139v-279h487v-137h-487v-473q0 -68 12 -118t41 -85t78 -52t121 -17t129 12t110 33l35 -123q-66 -25 -147.5 -42.5t-163.5 -17.5q-109 0 -182.5 30t-117.5 84t-63.5 130t-19.5 168v471h-281z" />
<glyph unicode="u" d="M158 377v618h170v-596q0 -141 52 -209.5t177 -68.5q86 0 155.5 44t153.5 140v690h168v-995h-137l-14 174h-9q-76 -88 -164.5 -143.5t-205.5 -55.5q-180 0 -263 101.5t-83 300.5z" />
<glyph unicode="v" d="M104 995h170l230 -565q31 -76 58.5 -148.5t53.5 -144.5h9q27 72 52 144.5t56 148.5l230 565h161l-411 -995h-189z" />
<glyph unicode="w" d="M16 995h170l123 -575q14 -72 26.5 -139.5t22.5 -137.5h9q14 70 28.5 138.5t30.5 138.5l123 516h139l127 -516q16 -72 29.5 -139.5t29.5 -137.5h9q14 70 25.5 137.5t23.5 139.5l121 575h159l-215 -995h-204l-119 504q-14 72 -26.5 141.5t-29.5 147.5h-8 q-12 -66 -24.5 -135.5t-30.5 -155.5l-115 -502h-200z" />
<glyph unicode="x" d="M131 0l379 516l-350 479h186l158 -219q27 -41 56.5 -84t60.5 -84h8q29 41 57.5 86t54.5 86l150 215h178l-354 -493l381 -502h-185l-174 229q-31 43 -64.5 90.5t-66.5 90.5h-8q-31 -45 -61.5 -89.5t-61.5 -91.5l-164 -229h-180z" />
<glyph unicode="y" d="M100 995h170l244 -551q29 -66 60.5 -141.5t62.5 -146.5h8q27 72 54.5 146.5t52.5 141.5l217 551h159l-438 -1077q-29 -74 -65.5 -137.5t-88 -109.5t-118 -72.5t-150.5 -26.5q-74 0 -131 20l35 134q20 -6 44 -10.5t46 -4.5q104 0 170 60.5t103 152.5l30 74z" />
<glyph unicode="z" d="M145 0v90l682 768h-606v137h848v-90l-684 -768h705v-137h-945z" />
<glyph unicode="{" d="M246 516v107q90 0 148.5 14t91 36.5t45 50.5t12.5 58q0 98 -9.5 193.5t-9.5 202.5q0 80 22.5 132t70 82.5t119 44t167.5 13.5h125v-98h-106q-78 0 -128.5 -10.5t-78 -32t-37.5 -57t-10 -85.5q0 -88 6 -181t6 -189q0 -100 -40 -152.5t-146 -71.5v-8q106 -18 146 -70.5 t40 -152.5q0 -104 -6 -190t-6 -181q0 -49 10 -85t37.5 -57.5t78 -31.5t128.5 -10h106v-98h-125q-96 0 -167.5 13t-119 44t-70 83t-22.5 132q0 55 3 105.5t6.5 97.5t6.5 94t3 98q0 31 -12.5 58.5t-45 50t-91 37t-148.5 14.5z" />
<glyph unicode="|" d="M555 -512v2048h119v-2048h-119z" />
<glyph unicode="}" d="M203 -213h104q78 0 128 10t79 31.5t39 57.5t10 85q0 94 -6 180.5t-6 190.5q0 100 39 152.5t145 70.5v8q-106 18 -145 70.5t-39 153.5q0 96 6 189t6 181q0 49 -10 85t-39 57.5t-79 32t-128 10.5h-104v98h125q96 0 166.5 -13.5t117.5 -44t70 -83t23 -131.5 q0 -106 -9.5 -201.5t-9.5 -194.5q0 -31 12.5 -58.5t45 -50t91 -36.5t148.5 -14v-107q-90 0 -148.5 -14.5t-91 -37t-45 -50t-12.5 -58.5q0 -51 3 -98l6 -94t6.5 -97.5t3.5 -105.5q0 -80 -23 -132t-70 -83t-117.5 -44t-166.5 -13h-125v98z" />
<glyph unicode="~" d="M156 528q53 143 126.5 199.5t151.5 56.5q61 0 109.5 -26.5t90.5 -59t82 -59.5t83 -27q25 0 46 7.5t42.5 27t40 54t37.5 87.5l108 -49q-53 -143 -127 -198.5t-151 -55.5q-61 0 -109.5 27t-90.5 59.5t-82 59t-83 26.5q-47 0 -89 -34.5t-77 -141.5z" />
<glyph unicode="&#xa0;" />
<glyph unicode="&#xa1;" d="M465 862q0 72 44 115t105 43t105.5 -43t44.5 -115q0 -74 -44 -115.5t-106 -41.5q-61 0 -105 41.5t-44 115.5zM532 -377l5 193l20 704h115l20 -704l4 -193h-164z" />
<glyph unicode="&#xa2;" d="M231 635q0 106 32 191t87.5 146.5t131 98.5t161.5 49v217h105v-211q90 -4 155.5 -38.5t112.5 -79.5l-82 -107q-41 37 -87 59.5t-99 26.5v-704q66 4 119 31.5t96 64.5l73 -107q-61 -53 -135 -87.5t-153 -41.5v-211h-105v213q-92 10 -168 47t-130 99.5t-84 148.5t-30 195z M397 635q0 -137 64.5 -227.5t181.5 -116.5v686q-115 -27 -180.5 -117t-65.5 -225z" />
<glyph unicode="&#xa3;" d="M158 584v106l202 8q-23 66 -44 128.5t-21 127.5q0 86 30.5 156t87 119t135.5 75.5t177 26.5q127 0 214 -44t146 -109l-98 -97q-47 47 -107.5 78t-146.5 31q-135 0 -205.5 -66.5t-70.5 -173.5q0 -66 19.5 -126t41.5 -126h387v-114h-354q12 -55 12 -115q0 -109 -38 -180.5 t-115 -134.5v-9h677v-145h-927v102q129 57 191.5 154.5t62.5 214.5q0 53 -17 113h-239z" />
<glyph unicode="&#xa4;" d="M119 262l172 174q-35 47 -54.5 106.5t-19.5 131.5t18.5 132t53.5 107l-170 177l90 92l178 -185q98 76 227 76q127 0 228 -76l178 185l90 -92l-172 -177q35 -47 54.5 -107.5t19.5 -131.5q0 -72 -19.5 -131.5t-54.5 -106.5l172 -174l-90 -92l-180 182q-47 -39 -105.5 -58.5 t-120.5 -19.5q-127 0 -227 78l-178 -182zM373 674q0 -61 19.5 -111.5t52 -87.5t76.5 -56.5t93 -19.5t93.5 19.5t77 56.5t52 87t19.5 112q0 61 -19.5 111.5t-52 87t-76.5 56t-94 19.5q-49 0 -93 -19.5t-76.5 -56t-52 -87t-19.5 -111.5z" />
<glyph unicode="&#xa5;" d="M109 1307h174l188 -351q35 -68 68.5 -136t72.5 -140h9q37 72 71.5 140.5t71.5 135.5l188 351h168l-381 -656h332v-96h-375v-133h375v-98h-375v-324h-168v324h-370v98h370v133h-370v96h329z" />
<glyph unicode="&#xa6;" d="M555 438h119v-950h-119v950zM555 596v940h119v-940h-119z" />
<glyph unicode="&#xa7;" d="M186 702q0 92 52.5 158t134.5 109q-29 33 -46.5 72.5t-17.5 93.5q0 53 19.5 101t58.5 85t96.5 58.5t134.5 21.5q102 0 185.5 -35t144.5 -82l-82 -108q-53 41 -110.5 67.5t-128.5 26.5q-86 0 -125 -38t-39 -91q0 -55 43 -92t107.5 -68t139 -61.5t139 -74.5t107.5 -106.5 t43 -156.5q0 -98 -50 -160t-134 -107q29 -33 44.5 -72.5t15.5 -92.5q0 -61 -25 -112.5t-68 -88.5t-103 -58.5t-134 -21.5q-113 0 -207 39t-160 106l103 92q53 -49 115.5 -77.5t148.5 -28.5q84 0 130 41t46 100q0 57 -43 96t-106.5 70t-139.5 60.5t-139.5 72.5t-106.5 105.5 t-43 156.5zM332 713q0 -68 42 -112t106.5 -78t139 -62.5t140.5 -67.5q66 29 101.5 68t35.5 108q0 70 -42 115t-105.5 79t-138 63.5t-140.5 66.5q-63 -33 -101 -75t-38 -105z" />
<glyph unicode="&#xa8;" d="M307 1317q0 47 31 80t80 33q47 0 78.5 -33t31.5 -80t-31.5 -80t-78.5 -33q-49 0 -80 33t-31 80zM700 1317q0 47 32 80t79 33q49 0 80 -33t31 -80t-31 -80t-80 -33q-47 0 -79 33t-32 80z" />
<glyph unicode="&#xa9;" d="M61 662q0 156 42 281.5t117 212.5t176.5 134t217.5 47q117 0 218.5 -47t176 -134t116.5 -213t42 -281q0 -158 -42 -284t-116.5 -215t-176 -137.5t-218.5 -48.5t-218 48.5t-176 137.5t-117 215t-42 284zM156 662q0 -135 32.5 -245t93 -188.5t145.5 -122t187 -43.5 t187.5 43.5t146 122t93 188t32.5 245.5q0 135 -32.5 243.5t-93 186t-145.5 119.5t-188 42q-102 0 -187 -42t-145.5 -119.5t-93 -186t-32.5 -243.5zM299 662q0 88 27.5 159.5t75 122.5t107.5 78t128 27q72 0 122 -28t91 -69l-70 -80q-33 29 -64.5 46.5t-72.5 17.5 q-94 0 -151.5 -77t-57.5 -197q0 -135 54.5 -214t146.5 -79q53 0 92 20.5t74 48.5l61 -86q-47 -41 -100 -68.5t-131 -27.5q-70 0 -130.5 27.5t-105.5 80t-70.5 127.5t-25.5 171z" />
<glyph unicode="&#xaa;" d="M342 707q0 109 104.5 166t327.5 79q-2 61 -32.5 106.5t-110.5 45.5q-59 0 -112.5 -21.5t-98.5 -48.5l-51 88q53 31 126.5 58.5t155.5 27.5q129 0 191.5 -73.5t62.5 -202.5v-400h-106l-11 76h-4q-49 -39 -107.5 -65.5t-123.5 -26.5q-88 0 -149.5 51.5t-61.5 139.5z M471 715q0 -49 35 -73t86 -24q47 0 91 22t91 60v168q-166 -18 -234.5 -56t-68.5 -97z" />
<glyph unicode="&#xab;" d="M170 434v164l314 328l80 -72l-260 -338l260 -340l-80 -70zM639 434v164l314 328l80 -72l-260 -338l260 -340l-80 -70z" />
<glyph unicode="&#xac;" d="M174 571v127h881v-526h-135v399h-746z" />
<glyph unicode="&#xad;" d="M274 526v148h680v-148h-680z" />
<glyph unicode="&#xae;" d="M229 1057q0 90 30 163.5t82 127t123 83t150 29.5q80 0 150 -29.5t122 -83t82.5 -127t30.5 -163.5t-30.5 -164t-82.5 -127t-122 -83t-150 -30t-150.5 30t-122.5 83t-82 127t-30 164zM309 1057q0 -74 23.5 -134.5t64.5 -103.5t96 -66.5t121 -23.5q63 0 120 23.5t96.5 66.5 t63.5 103.5t24 134.5q0 72 -24 132t-63.5 104t-96 68.5t-120.5 24.5q-66 0 -121 -24.5t-96 -68.5t-64.5 -104.5t-23.5 -131.5zM465 854v416h156q66 0 113.5 -30t47.5 -103q0 -37 -21.5 -69t-55.5 -44l94 -170h-94l-72 143h-84v-143h-84zM549 1063h53q41 0 65.5 17.5 t24.5 52.5q0 31 -19.5 49t-66.5 18h-57v-137z" />
<glyph unicode="&#xaf;" d="M362 1231v117h504v-117h-504z" />
<glyph unicode="&#xb0;" d="M358 1139q0 61 20.5 109t56.5 83t82 53.5t97 18.5t98.5 -18.5t82 -53.5t56 -83t21.5 -109q0 -59 -21.5 -107.5t-56 -82.5t-82 -52t-98.5 -18t-97 18t-82 52t-56.5 82t-20.5 108zM461 1139q0 -72 42.5 -119t110.5 -47q70 0 113 47t43 119q0 76 -43 123t-113 47 q-68 0 -110.5 -47.5t-42.5 -122.5z" />
<glyph unicode="&#xb1;" d="M174 0v127h881v-127h-881zM174 596v127h373v375h135v-375h373v-127h-373v-363h-135v363h-373z" />
<glyph unicode="&#xb2;" d="M356 1425q47 53 107.5 89t134.5 36q111 0 174.5 -54t63.5 -157q0 -41 -19.5 -81t-53.5 -79.5t-79 -81.5t-96 -87h278v-109h-489v74q160 121 245 200.5t85 147.5q0 55 -32 88t-91 33q-41 0 -80 -23.5t-68 -62.5z" />
<glyph unicode="&#xb3;" d="M352 987l66 80q31 -37 81 -62.5t105 -25.5t91 22.5t36 73.5q0 104 -196 105v77q86 0 125.5 29t39.5 76q0 41 -26.5 64.5t-85.5 23.5q-37 0 -78 -19.5t-72 -50.5l-61 78q39 41 101.5 66.5t133.5 25.5q96 0 156.5 -45t60.5 -127q0 -113 -114 -153q66 -16 105.5 -55.5 t39.5 -102.5q0 -92 -71.5 -141.5t-176.5 -49.5q-72 0 -140.5 29t-119.5 82z" />
<glyph unicode="&#xb4;" d="M481 1174l185 303h184l-240 -303h-129z" />
<glyph unicode="&#xb5;" d="M172 -410v1405h168v-608q0 -141 52 -203.5t169 -62.5q84 0 149.5 41t143.5 131v702h168v-995h-139l-15 162h-8q-59 -82 -136 -130t-173 -48q-72 0 -126 18t-95 78l10 -193v-297h-168z" />
<glyph unicode="&#xb6;" d="M147 907q0 121 37 204t101.5 135t152.5 74.5t191 22.5h88v-880h-66q-109 0 -201 25.5t-159.5 80t-105.5 138.5t-38 200zM827 -164v1507h166v-1507h-166z" />
<glyph unicode="&#xb7;" d="M449 710q0 78 48 126.5t117 48.5q70 0 118 -48.5t48 -126.5t-48 -125t-118 -47t-117.5 47t-47.5 125z" />
<glyph unicode="&#xb8;" d="M452 -352q82 10 132.5 33.5t50.5 64.5t-34 62.5t-95 37.5l81 160h109l-51 -108q49 -16 85 -49t36 -97q0 -45 -24.5 -77.5t-65.5 -55t-95.5 -36t-111.5 -19.5z" />
<glyph unicode="&#xb9;" d="M426 1372v86q68 10 110 26.5t85 41.5h102v-625h-129v471h-168z" />
<glyph unicode="&#xba;" d="M291 862q0 82 26.5 146.5t70.5 108.5t102.5 67.5t123.5 23.5q66 0 124.5 -23.5t103.5 -67.5t70.5 -108.5t25.5 -146.5t-25.5 -146.5t-70.5 -108.5t-103.5 -67.5t-124.5 -23.5t-124 23.5t-102 67.5t-70.5 108.5t-26.5 146.5zM426 862q0 -109 50 -174t138 -65t138.5 65.5 t50.5 173.5q0 106 -50.5 173t-138.5 67t-138 -67t-50 -173z" />
<glyph unicode="&#xbb;" d="M199 176l260 340l-260 338l80 72l313 -328v-164l-313 -328zM668 176l260 340l-260 338l80 72l313 -328v-164l-313 -328z" />
<glyph unicode="&#xbc;" d="M57 158l375 385l68 -62l-342 -415zM154 1153v86q68 10 110 26.5t85 41.5h102v-625h-129v471h-168zM626 150v63l303 412h146v-387h102v-88h-102v-150h-117v150h-332zM729 862l342 416l100 -92l-374 -385zM757 238h201v114l8 168h-6l-92 -133z" />
<glyph unicode="&#xbd;" d="M57 158l375 385l68 -62l-342 -415zM154 1153v86q68 10 110 26.5t85 41.5h102v-625h-129v471h-168zM630 524q47 53 107.5 89t134.5 36q111 0 174.5 -54t63.5 -157q0 -41 -19.5 -81t-53.5 -79.5t-79 -81.5t-96 -87h278v-109h-489v74q160 121 245 200.5t85 147.5 q0 55 -32 88t-91 33q-41 0 -80 -23.5t-68 -62.5zM729 862l342 416l100 -92l-374 -385z" />
<glyph unicode="&#xbe;" d="M80 768l66 80q31 -37 81 -62.5t105 -25.5t91 22.5t36 73.5q0 104 -196 105v77q86 0 125.5 29t39.5 76q0 41 -26.5 64.5t-85.5 23.5q-37 0 -78 -19.5t-72 -50.5l-61 78q39 41 101.5 66.5t133.5 25.5q96 0 156.5 -45t60.5 -127q0 -113 -114 -153q66 -16 105.5 -55.5 t39.5 -102.5q0 -92 -71.5 -141.5t-176.5 -49.5q-72 0 -140.5 29t-119.5 82zM108 158l375 385l68 -62l-342 -415zM626 150v63l303 412h146v-387h102v-88h-102v-150h-117v150h-332zM757 238h201v114l8 168h-6l-92 -133zM780 862l342 416l100 -92l-374 -385z" />
<glyph unicode="&#xbf;" d="M252 -82q0 68 27.5 120t67.5 96t86 85t83 86t57.5 96.5t12.5 118.5h149q12 -74 -6 -131t-54 -104t-81 -88t-85 -81t-66.5 -84t-26.5 -95q0 -86 57 -141.5t170 -55.5q78 0 144.5 30.5t121.5 86.5l99 -93q-68 -72 -163 -118.5t-214 -46.5q-172 0 -275.5 86t-103.5 233z M496 862q0 72 44 115t105 43t106.5 -43t45.5 -115q0 -74 -45 -115.5t-107 -41.5q-61 0 -105 41.5t-44 115.5z" />
<glyph unicode="&#xc0;" d="M66 0l452 1343h193l452 -1343h-180l-127 410h-487l-129 -410h-174zM346 1675h193l180 -229h-141zM412 547h401l-63 205q-35 113 -68 224t-66 228h-8q-33 -117 -65.5 -228.5t-67.5 -223.5z" />
<glyph unicode="&#xc1;" d="M66 0l452 1343h193l452 -1343h-180l-127 410h-487l-129 -410h-174zM412 547h401l-63 205q-35 113 -68 224t-66 228h-8q-33 -117 -65.5 -228.5t-67.5 -223.5zM510 1446l180 229h193l-232 -229h-141z" />
<glyph unicode="&#xc2;" d="M66 0l452 1343h193l452 -1343h-180l-127 410h-487l-129 -410h-174zM336 1446l196 229h164l197 -229h-137l-138 139h-8l-137 -139h-137zM412 547h401l-63 205q-35 113 -68 224t-66 228h-8q-33 -117 -65.5 -228.5t-67.5 -223.5z" />
<glyph unicode="&#xc3;" d="M66 0l452 1343h193l452 -1343h-180l-127 410h-487l-129 -410h-174zM317 1456q10 96 55.5 158.5t119.5 62.5q41 0 73.5 -16t60 -36.5t54.5 -37t55 -16.5q29 0 51.5 27.5t30.5 78.5h94q-10 -94 -55 -157.5t-119 -63.5q-41 0 -73.5 16.5t-60.5 37t-54.5 37t-54.5 16.5 q-29 0 -51.5 -27t-30.5 -80h-95zM412 547h401l-63 205q-35 113 -68 224t-66 228h-8q-33 -117 -65.5 -228.5t-67.5 -223.5z" />
<glyph unicode="&#xc4;" d="M66 0l452 1343h193l452 -1343h-180l-127 410h-487l-129 -410h-174zM338 1565q0 45 27.5 72.5t72.5 27.5q43 0 72 -27.5t29 -72.5q0 -43 -29 -72t-72 -29q-45 0 -72.5 29t-27.5 72zM412 547h401l-63 205q-35 113 -68 224t-66 228h-8q-33 -117 -65.5 -228.5t-67.5 -223.5z M690 1565q0 45 29 72.5t72 27.5q45 0 72.5 -27.5t27.5 -72.5q0 -43 -27.5 -72t-72.5 -29q-43 0 -72 29t-29 72z" />
<glyph unicode="&#xc5;" d="M66 0l452 1343h193l452 -1343h-180l-127 410h-487l-129 -410h-174zM412 547h401l-63 205q-35 113 -68 224t-66 228h-8q-33 -117 -65.5 -228.5t-67.5 -223.5zM424 1612q0 82 53 131t137 49q82 0 136.5 -49t54.5 -131q0 -84 -54.5 -132t-136.5 -48q-84 0 -137 48t-53 132z M516 1612q0 -51 28.5 -79t69.5 -28q39 0 68 28t29 79q0 47 -29 75.5t-68 28.5q-41 0 -69.5 -28.5t-28.5 -75.5z" />
<glyph unicode="&#xc6;" d="M-2 0l532 1343h662v-143h-387v-420h301v-145h-301v-490h405v-145h-561v391h-323l-150 -391h-178zM379 528h270v680h-6q-41 -111 -85 -218t-85 -218z" />
<glyph unicode="&#xc7;" d="M135 672q0 162 44 291t124 219t190.5 138t241.5 48q123 0 215 -49t152 -115l-96 -108q-53 55 -119 89t-152 34q-96 0 -175 -38t-134 -109t-85 -171t-30 -225q0 -127 30 -228.5t85 -173t134 -110.5t175 -39q92 0 164 39t137 110l99 -104q-80 -92 -180.5 -143.5 t-229.5 -51.5q-127 0 -234.5 47.5t-186.5 136.5t-124 219t-45 294zM526 -352q82 10 132 33.5t50 64.5t-33.5 62.5t-97.5 37.5l82 160h111l-51 -108q49 -16 84.5 -49t35.5 -97q0 -45 -24.5 -77.5t-65.5 -55t-95 -36t-112 -19.5z" />
<glyph unicode="&#xc8;" d="M236 0v1343h829v-143h-657v-422h555v-145h-555v-488h677v-145h-849zM409 1675h193l180 -229h-141z" />
<glyph unicode="&#xc9;" d="M236 0v1343h829v-143h-657v-422h555v-145h-555v-488h677v-145h-849zM573 1446l180 229h193l-232 -229h-141z" />
<glyph unicode="&#xca;" d="M236 0v1343h829v-143h-657v-422h555v-145h-555v-488h677v-145h-849zM399 1446l196 229h164l197 -229h-137l-138 139h-8l-137 -139h-137z" />
<glyph unicode="&#xcb;" d="M236 0v1343h829v-143h-657v-422h555v-145h-555v-488h677v-145h-849zM401 1565q0 45 27.5 72.5t72.5 27.5q43 0 72 -27.5t29 -72.5q0 -43 -29 -72t-72 -29q-45 0 -72.5 29t-27.5 72zM753 1565q0 45 29 72.5t72 27.5q45 0 72.5 -27.5t27.5 -72.5q0 -43 -27.5 -72t-72.5 -29 q-43 0 -72 29t-29 72z" />
<glyph unicode="&#xcc;" d="M195 0v145h333v1055h-333v143h839v-143h-334v-1055h334v-145h-839zM346 1675h193l180 -229h-141z" />
<glyph unicode="&#xcd;" d="M195 0v145h333v1055h-333v143h839v-143h-334v-1055h334v-145h-839zM510 1446l180 229h193l-232 -229h-141z" />
<glyph unicode="&#xce;" d="M195 0v145h333v1055h-333v143h839v-143h-334v-1055h334v-145h-839zM336 1446l196 229h164l197 -229h-137l-138 139h-8l-137 -139h-137z" />
<glyph unicode="&#xcf;" d="M195 0v145h333v1055h-333v143h839v-143h-334v-1055h334v-145h-839zM338 1565q0 45 27.5 72.5t72.5 27.5q43 0 72 -27.5t29 -72.5q0 -43 -29 -72t-72 -29q-45 0 -72.5 29t-27.5 72zM690 1565q0 45 29 72.5t72 27.5q45 0 72.5 -27.5t27.5 -72.5q0 -43 -27.5 -72t-72.5 -29 q-43 0 -72 29t-29 72z" />
<glyph unicode="&#xd0;" d="M33 657v86l153 11v589h330q303 0 462 -172t159 -493q0 -322 -159 -500t-456 -178h-336v657h-153zM356 139h148q229 0 343 141.5t114 397.5t-114 391t-343 135h-148v-450h293v-97h-293v-518z" />
<glyph unicode="&#xd1;" d="M170 0v1343h174l436 -847l135 -275h5q-4 100 -13.5 210t-9.5 216v696h162v-1343h-174l-436 848l-136 274h-4q4 -104 13.5 -209.5t9.5 -210.5v-702h-162zM329 1456q10 96 55.5 158.5t119.5 62.5q41 0 73.5 -16t60 -36.5t54.5 -37t55 -16.5q29 0 51.5 27.5t30.5 78.5h94 q-10 -94 -55 -157.5t-119 -63.5q-41 0 -73.5 16.5t-60.5 37t-54.5 37t-54.5 16.5q-29 0 -51.5 -27t-30.5 -80h-95z" />
<glyph unicode="&#xd2;" d="M98 678q0 162 38 290t106.5 217t163 136t208.5 47q113 0 208.5 -48t164 -137t106 -217t37.5 -288q0 -162 -37.5 -292t-106 -221t-164 -140.5t-208.5 -49.5q-115 0 -209 49.5t-162.5 140.5t-106.5 221t-38 292zM274 678q0 -127 25 -228.5t69 -174t106 -111.5t140 -39 q76 0 139.5 39t107.5 111.5t68.5 174t24.5 228.5q0 125 -24.5 225.5t-68.5 170t-107.5 107.5t-139.5 38q-78 0 -140 -38t-106 -107.5t-69 -170t-25 -225.5zM346 1675h193l180 -229h-141z" />
<glyph unicode="&#xd3;" d="M98 678q0 162 38 290t106.5 217t163 136t208.5 47q113 0 208.5 -48t164 -137t106 -217t37.5 -288q0 -162 -37.5 -292t-106 -221t-164 -140.5t-208.5 -49.5q-115 0 -209 49.5t-162.5 140.5t-106.5 221t-38 292zM274 678q0 -127 25 -228.5t69 -174t106 -111.5t140 -39 q76 0 139.5 39t107.5 111.5t68.5 174t24.5 228.5q0 125 -24.5 225.5t-68.5 170t-107.5 107.5t-139.5 38q-78 0 -140 -38t-106 -107.5t-69 -170t-25 -225.5zM510 1446l180 229h193l-232 -229h-141z" />
<glyph unicode="&#xd4;" d="M98 678q0 162 38 290t106.5 217t163 136t208.5 47q113 0 208.5 -48t164 -137t106 -217t37.5 -288q0 -162 -37.5 -292t-106 -221t-164 -140.5t-208.5 -49.5q-115 0 -209 49.5t-162.5 140.5t-106.5 221t-38 292zM274 678q0 -127 25 -228.5t69 -174t106 -111.5t140 -39 q76 0 139.5 39t107.5 111.5t68.5 174t24.5 228.5q0 125 -24.5 225.5t-68.5 170t-107.5 107.5t-139.5 38q-78 0 -140 -38t-106 -107.5t-69 -170t-25 -225.5zM336 1446l196 229h164l197 -229h-137l-138 139h-8l-137 -139h-137z" />
<glyph unicode="&#xd5;" d="M98 678q0 162 38 290t106.5 217t163 136t208.5 47q113 0 208.5 -48t164 -137t106 -217t37.5 -288q0 -162 -37.5 -292t-106 -221t-164 -140.5t-208.5 -49.5q-115 0 -209 49.5t-162.5 140.5t-106.5 221t-38 292zM274 678q0 -127 25 -228.5t69 -174t106 -111.5t140 -39 q76 0 139.5 39t107.5 111.5t68.5 174t24.5 228.5q0 125 -24.5 225.5t-68.5 170t-107.5 107.5t-139.5 38q-78 0 -140 -38t-106 -107.5t-69 -170t-25 -225.5zM317 1456q10 96 55.5 158.5t119.5 62.5q41 0 73.5 -16t60 -36.5t54.5 -37t55 -16.5q29 0 51.5 27.5t30.5 78.5h94 q-10 -94 -55 -157.5t-119 -63.5q-41 0 -73.5 16.5t-60.5 37t-54.5 37t-54.5 16.5q-29 0 -51.5 -27t-30.5 -80h-95z" />
<glyph unicode="&#xd6;" d="M98 678q0 162 38 290t106.5 217t163 136t208.5 47q113 0 208.5 -48t164 -137t106 -217t37.5 -288q0 -162 -37.5 -292t-106 -221t-164 -140.5t-208.5 -49.5q-115 0 -209 49.5t-162.5 140.5t-106.5 221t-38 292zM274 678q0 -127 25 -228.5t69 -174t106 -111.5t140 -39 q76 0 139.5 39t107.5 111.5t68.5 174t24.5 228.5q0 125 -24.5 225.5t-68.5 170t-107.5 107.5t-139.5 38q-78 0 -140 -38t-106 -107.5t-69 -170t-25 -225.5zM338 1565q0 45 27.5 72.5t72.5 27.5q43 0 72 -27.5t29 -72.5q0 -43 -29 -72t-72 -29q-45 0 -72.5 29t-27.5 72z M690 1565q0 45 29 72.5t72 27.5q45 0 72.5 -27.5t27.5 -72.5q0 -43 -27.5 -72t-72.5 -29q-43 0 -72 29t-29 72z" />
<glyph unicode="&#xd7;" d="M209 309l315 326l-315 323l90 93l315 -326l316 326l90 -93l-315 -323l315 -326l-90 -92l-316 328l-315 -328z" />
<glyph unicode="&#xd8;" d="M92 4l129 191q-59 92 -91 212.5t-32 270.5q0 162 38 290t106.5 217t163 136t208.5 47q188 0 318 -125l110 162l97 -66l-129 -190q59 -88 89.5 -206t30.5 -265q0 -162 -37.5 -292t-106 -221t-164 -140.5t-208.5 -49.5q-184 0 -315 125l-109 -161zM274 678q0 -195 56 -326 l510 754q-43 53 -100.5 83t-125.5 30q-78 0 -140 -38t-106 -107.5t-69 -170t-25 -225.5zM393 238q43 -53 99.5 -83t121.5 -30q76 0 139.5 39t107.5 111.5t68.5 174t24.5 228.5q0 182 -51 313z" />
<glyph unicode="&#xd9;" d="M162 508v835h172v-839q0 -104 21.5 -177t59.5 -117t89 -64.5t112 -20.5t112.5 20.5t90.5 64.5t60.5 116.5t21.5 177.5v839h166v-835q0 -145 -34 -245.5t-93 -165t-142 -93.5t-182 -29q-98 0 -182 29t-144.5 93.5t-94 164.5t-33.5 246zM346 1675h193l180 -229h-141z" />
<glyph unicode="&#xda;" d="M162 508v835h172v-839q0 -104 21.5 -177t59.5 -117t89 -64.5t112 -20.5t112.5 20.5t90.5 64.5t60.5 116.5t21.5 177.5v839h166v-835q0 -145 -34 -245.5t-93 -165t-142 -93.5t-182 -29q-98 0 -182 29t-144.5 93.5t-94 164.5t-33.5 246zM510 1446l180 229h193l-232 -229 h-141z" />
<glyph unicode="&#xdb;" d="M162 508v835h172v-839q0 -104 21.5 -177t59.5 -117t89 -64.5t112 -20.5t112.5 20.5t90.5 64.5t60.5 116.5t21.5 177.5v839h166v-835q0 -145 -34 -245.5t-93 -165t-142 -93.5t-182 -29q-98 0 -182 29t-144.5 93.5t-94 164.5t-33.5 246zM336 1446l196 229h164l197 -229 h-137l-138 139h-8l-137 -139h-137z" />
<glyph unicode="&#xdc;" d="M162 508v835h172v-839q0 -104 21.5 -177t59.5 -117t89 -64.5t112 -20.5t112.5 20.5t90.5 64.5t60.5 116.5t21.5 177.5v839h166v-835q0 -145 -34 -245.5t-93 -165t-142 -93.5t-182 -29q-98 0 -182 29t-144.5 93.5t-94 164.5t-33.5 246zM338 1565q0 45 27.5 72.5t72.5 27.5 q43 0 72 -27.5t29 -72.5q0 -43 -29 -72t-72 -29q-45 0 -72.5 29t-27.5 72zM690 1565q0 45 29 72.5t72 27.5q45 0 72.5 -27.5t27.5 -72.5q0 -43 -27.5 -72t-72.5 -29q-43 0 -72 29t-29 72z" />
<glyph unicode="&#xdd;" d="M78 1343h180l203 -399q39 -78 75.5 -154.5t77.5 -158.5h9q41 82 79.5 159.5t77.5 155.5l195 397h176l-451 -864v-479h-172v479zM510 1446l180 229h193l-232 -229h-141z" />
<glyph unicode="&#xde;" d="M207 0v1343h172v-225h242q111 0 202.5 -20.5t156 -67.5t100.5 -121.5t36 -185.5q0 -106 -36 -185t-101.5 -130.5t-156.5 -76t-201 -24.5h-242v-307h-172zM379 446h219q178 0 263 66t85 211t-87 200.5t-261 55.5h-219v-533z" />
<glyph unicode="&#xdf;" d="M180 0v1063q0 94 29 172t82 133t129 85t172 30q82 0 144.5 -24.5t105.5 -66.5t64.5 -96.5t21.5 -115.5q0 -78 -29 -132.5t-63.5 -99.5t-63.5 -87t-29 -95q0 -49 31 -82t76 -60.5t99.5 -54t99.5 -63.5t75.5 -91.5t30.5 -133.5q0 -66 -23.5 -121.5t-67.5 -96t-105.5 -64.5 t-137.5 -24q-86 0 -157.5 25t-137.5 68l68 118q57 -41 110.5 -60.5t112.5 -19.5q86 0 132 48.5t46 111.5q0 59 -30.5 98t-76.5 69t-99.5 55.5t-99.5 59.5t-76.5 80t-30.5 117q0 70 28.5 120t63.5 96.5t63.5 94.5t28.5 113q0 76 -45 126.5t-131 50.5q-113 0 -177.5 -77 t-64.5 -231v-1038h-168z" />
<glyph unicode="&#xe0;" d="M166 258q0 84 40 146.5t127 107.5t224 73.5t330 45.5q-2 51 -16.5 96t-45 79t-81 54.5t-121.5 20.5q-98 0 -188.5 -38t-160.5 -81l-65 115q37 25 87 50t106.5 45.5t120 34t128.5 13.5q205 0 304.5 -111.5t99.5 -298.5v-610h-137l-15 135h-6q-84 -66 -185.5 -113 t-207.5 -47q-70 0 -131.5 19.5t-107.5 55.5t-72.5 88t-26.5 120zM330 270q0 -43 18.5 -72.5t48 -49t69.5 -28.5t83 -9q86 0 169 37.5t169 109.5v262q-160 -12 -267.5 -34.5t-172 -54.5t-91 -72t-26.5 -89zM408 1477h184l185 -303h-130z" />
<glyph unicode="&#xe1;" d="M166 258q0 84 40 146.5t127 107.5t224 73.5t330 45.5q-2 51 -16.5 96t-45 79t-81 54.5t-121.5 20.5q-98 0 -188.5 -38t-160.5 -81l-65 115q37 25 87 50t106.5 45.5t120 34t128.5 13.5q205 0 304.5 -111.5t99.5 -298.5v-610h-137l-15 135h-6q-84 -66 -185.5 -113 t-207.5 -47q-70 0 -131.5 19.5t-107.5 55.5t-72.5 88t-26.5 120zM330 270q0 -43 18.5 -72.5t48 -49t69.5 -28.5t83 -9q86 0 169 37.5t169 109.5v262q-160 -12 -267.5 -34.5t-172 -54.5t-91 -72t-26.5 -89zM510 1174l185 303h184l-240 -303h-129z" />
<glyph unicode="&#xe2;" d="M166 258q0 84 40 146.5t127 107.5t224 73.5t330 45.5q-2 51 -16.5 96t-45 79t-81 54.5t-121.5 20.5q-98 0 -188.5 -38t-160.5 -81l-65 115q37 25 87 50t106.5 45.5t120 34t128.5 13.5q205 0 304.5 -111.5t99.5 -298.5v-610h-137l-15 135h-6q-84 -66 -185.5 -113 t-207.5 -47q-70 0 -131.5 19.5t-107.5 55.5t-72.5 88t-26.5 120zM330 270q0 -43 18.5 -72.5t48 -49t69.5 -28.5t83 -9q86 0 169 37.5t169 109.5v262q-160 -12 -267.5 -34.5t-172 -54.5t-91 -72t-26.5 -89zM373 1174l199 303h143l199 -303h-129l-138 202h-8l-137 -202h-129z " />
<glyph unicode="&#xe3;" d="M166 258q0 84 40 146.5t127 107.5t224 73.5t330 45.5q-2 51 -16.5 96t-45 79t-81 54.5t-121.5 20.5q-98 0 -188.5 -38t-160.5 -81l-65 115q37 25 87 50t106.5 45.5t120 34t128.5 13.5q205 0 304.5 -111.5t99.5 -298.5v-610h-137l-15 135h-6q-84 -66 -185.5 -113 t-207.5 -47q-70 0 -131.5 19.5t-107.5 55.5t-72.5 88t-26.5 120zM330 270q0 -43 18.5 -72.5t48 -49t69.5 -28.5t83 -9q86 0 169 37.5t169 109.5v262q-160 -12 -267.5 -34.5t-172 -54.5t-91 -72t-26.5 -89zM353 1186q10 98 54 160.5t126 62.5q37 0 67.5 -17.5t56 -38t50 -38 t49.5 -17.5q63 0 82 111h96q-10 -96 -54 -159.5t-126 -63.5q-37 0 -67.5 17.5t-56.5 39t-50.5 38.5t-48.5 17q-63 0 -82 -112h-96z" />
<glyph unicode="&#xe4;" d="M166 258q0 84 40 146.5t127 107.5t224 73.5t330 45.5q-2 51 -16.5 96t-45 79t-81 54.5t-121.5 20.5q-98 0 -188.5 -38t-160.5 -81l-65 115q37 25 87 50t106.5 45.5t120 34t128.5 13.5q205 0 304.5 -111.5t99.5 -298.5v-610h-137l-15 135h-6q-84 -66 -185.5 -113 t-207.5 -47q-70 0 -131.5 19.5t-107.5 55.5t-72.5 88t-26.5 120zM330 270q0 -43 18.5 -72.5t48 -49t69.5 -28.5t83 -9q86 0 169 37.5t169 109.5v262q-160 -12 -267.5 -34.5t-172 -54.5t-91 -72t-26.5 -89zM336 1317q0 47 31 80t80 33q47 0 78.5 -33t31.5 -80t-31.5 -80 t-78.5 -33q-49 0 -80 33t-31 80zM729 1317q0 47 32 80t79 33q49 0 80 -33t31 -80t-31 -80t-80 -33q-47 0 -79 33t-32 80z" />
<glyph unicode="&#xe5;" d="M166 258q0 84 40 146.5t127 107.5t224 73.5t330 45.5q-2 51 -16.5 96t-45 79t-81 54.5t-121.5 20.5q-98 0 -188.5 -38t-160.5 -81l-65 115q37 25 87 50t106.5 45.5t120 34t128.5 13.5q205 0 304.5 -111.5t99.5 -298.5v-610h-137l-15 135h-6q-84 -66 -185.5 -113 t-207.5 -47q-70 0 -131.5 19.5t-107.5 55.5t-72.5 88t-26.5 120zM330 270q0 -43 18.5 -72.5t48 -49t69.5 -28.5t83 -9q86 0 169 37.5t169 109.5v262q-160 -12 -267.5 -34.5t-172 -54.5t-91 -72t-26.5 -89zM453 1300q0 86 53 137.5t137 51.5t137.5 -51.5t53.5 -137.5 t-53.5 -138t-137.5 -52t-137 52t-53 138zM545 1300q0 -53 28.5 -83.5t69.5 -30.5t70 30.5t29 83.5q0 51 -29 82t-70 31t-69.5 -30.5t-28.5 -82.5z" />
<glyph unicode="&#xe6;" d="M35 264q0 150 127 239t381 128q-2 111 -42 181.5t-136 70.5q-53 0 -120 -26t-114 -58l-63 114q61 41 143 74t174 33q98 0 158.5 -57.5t89.5 -143.5q49 96 119.5 148.5t169.5 52.5q76 0 132 -37t94 -99.5t56.5 -144.5t18.5 -174q0 -29 -2 -55.5t-7 -52.5h-528 q6 -156 67.5 -251t182.5 -95q57 0 105.5 18t91.5 45l59 -111q-51 -35 -117.5 -61.5t-144.5 -26.5q-109 0 -182.5 49.5t-122.5 137.5q-84 -92 -165 -139.5t-159 -47.5q-123 0 -194.5 77t-71.5 212zM190 272q0 -80 41 -120.5t111 -40.5q53 0 116.5 36.5t116.5 108.5 q-16 45 -23 99.5t-9 113.5l-2 51q-188 -33 -269.5 -92.5t-81.5 -155.5zM684 569h397q0 63 -8 121t-28.5 102t-54.5 69.5t-83 25.5q-96 0 -154.5 -84t-68.5 -234z" />
<glyph unicode="&#xe7;" d="M164 496q0 125 44 222t119.5 164.5t177 102.5t214.5 35q123 0 212 -43t150 -103l-84 -108q-61 53 -127.5 84t-144.5 31q-86 0 -157.5 -28t-122 -79t-79 -121.5t-28.5 -156.5t27.5 -156t78 -120t121 -77.5t156.5 -27.5q92 0 169 35.5t140 89.5l74 -109 q-82 -74 -183.5 -115t-211.5 -41q-117 0 -216.5 35t-173 101.5t-114.5 164t-41 220.5zM526 -352q82 10 132.5 33.5t50.5 64.5t-34 62.5t-95 37.5l81 160h109l-51 -108q49 -16 85 -49t36 -97q0 -45 -24.5 -77.5t-65.5 -55t-95.5 -36t-111.5 -19.5z" />
<glyph unicode="&#xe8;" d="M141 496q0 123 43 220t114 164.5t162 103.5t187 36q106 0 190.5 -34t142.5 -95.5t89 -147.5t31 -190q0 -55 -6 -92h-779q10 -162 113.5 -256t267.5 -94q88 0 161 24.5t142 67.5l60 -111q-74 -47 -168 -82t-215 -35q-111 0 -208 36t-170 102.5t-115 163t-42 219.5z M313 571h631q0 154 -78 235t-217 81q-61 0 -117.5 -21.5t-101.5 -61.5t-76.5 -98.5t-40.5 -134.5zM410 1477h184l185 -303h-130z" />
<glyph unicode="&#xe9;" d="M141 496q0 123 43 220t114 164.5t162 103.5t187 36q106 0 190.5 -34t142.5 -95.5t89 -147.5t31 -190q0 -55 -6 -92h-779q10 -162 113.5 -256t267.5 -94q88 0 161 24.5t142 67.5l60 -111q-74 -47 -168 -82t-215 -35q-111 0 -208 36t-170 102.5t-115 163t-42 219.5z M313 571h631q0 154 -78 235t-217 81q-61 0 -117.5 -21.5t-101.5 -61.5t-76.5 -98.5t-40.5 -134.5zM512 1174l185 303h184l-240 -303h-129z" />
<glyph unicode="&#xea;" d="M141 496q0 123 43 220t114 164.5t162 103.5t187 36q106 0 190.5 -34t142.5 -95.5t89 -147.5t31 -190q0 -55 -6 -92h-779q10 -162 113.5 -256t267.5 -94q88 0 161 24.5t142 67.5l60 -111q-74 -47 -168 -82t-215 -35q-111 0 -208 36t-170 102.5t-115 163t-42 219.5z M313 571h631q0 154 -78 235t-217 81q-61 0 -117.5 -21.5t-101.5 -61.5t-76.5 -98.5t-40.5 -134.5zM375 1174l199 303h143l199 -303h-129l-138 202h-8l-137 -202h-129z" />
<glyph unicode="&#xeb;" d="M141 496q0 123 43 220t114 164.5t162 103.5t187 36q106 0 190.5 -34t142.5 -95.5t89 -147.5t31 -190q0 -55 -6 -92h-779q10 -162 113.5 -256t267.5 -94q88 0 161 24.5t142 67.5l60 -111q-74 -47 -168 -82t-215 -35q-111 0 -208 36t-170 102.5t-115 163t-42 219.5z M313 571h631q0 154 -78 235t-217 81q-61 0 -117.5 -21.5t-101.5 -61.5t-76.5 -98.5t-40.5 -134.5zM338 1317q0 47 31 80t80 33q47 0 78.5 -33t31.5 -80t-31.5 -80t-78.5 -33q-49 0 -80 33t-31 80zM731 1317q0 47 32 80t79 33q49 0 80 -33t31 -80t-31 -80t-80 -33 q-47 0 -79 33t-32 80z" />
<glyph unicode="&#xec;" d="M184 858v137h631v-995h-168v858h-463zM477 1477h184l185 -303h-130z" />
<glyph unicode="&#xed;" d="M184 858v137h631v-995h-168v858h-463zM579 1174l185 303h184l-240 -303h-129z" />
<glyph unicode="&#xee;" d="M184 858v137h631v-995h-168v858h-463zM442 1174l199 303h143l199 -303h-129l-138 202h-8l-137 -202h-129z" />
<glyph unicode="&#xef;" d="M184 858v137h631v-995h-168v858h-463zM405 1317q0 47 31 80t80 33q47 0 78.5 -33t31.5 -80t-31.5 -80t-78.5 -33q-49 0 -80 33t-31 80zM798 1317q0 47 32 80t79 33q49 0 80 -33t31 -80t-31 -80t-80 -33q-47 0 -79 33t-32 80z" />
<glyph unicode="&#xf0;" d="M123 455q0 104 35 189t97 145.5t147 93t188 32.5q96 0 182 -43t143 -120q-29 141 -91 244.5t-156 185.5l-308 -158l-47 84l271 139q-53 39 -114.5 73t-131.5 69l78 106q82 -39 157.5 -82t145.5 -96l276 141l47 -84l-243 -125q135 -125 217 -300t82 -423q0 -123 -34 -224 t-97.5 -174t-153.5 -113t-203 -40q-96 0 -184 33t-155.5 95.5t-107.5 151.5t-40 200zM281 455q0 -78 26.5 -140.5t71.5 -106.5t106 -68.5t129 -24.5q82 0 142.5 29.5t100.5 84t59.5 128t19.5 163.5v45.5t-2 44.5q-72 96 -156 135t-164 39q-82 0 -144 -24.5t-104 -69.5 t-63.5 -105.5t-21.5 -129.5z" />
<glyph unicode="&#xf1;" d="M190 0v995h140l14 -170h8q78 84 168 139.5t207 55.5q178 0 261 -101.5t83 -300.5v-618h-168v596q0 141 -53 209.5t-176 68.5q-45 0 -83 -11t-75 -33.5t-76 -56.5t-82 -79v-694h-168zM361 1186q10 98 54 160.5t126 62.5q37 0 67.5 -17.5t56 -38t50 -38t49.5 -17.5 q63 0 82 111h96q-10 -96 -54 -159.5t-126 -63.5q-37 0 -67.5 17.5t-56.5 39t-50.5 38.5t-48.5 17q-63 0 -82 -112h-96z" />
<glyph unicode="&#xf2;" d="M123 496q0 125 40 222t107.5 164.5t156.5 102.5t187 35t187.5 -35t157 -102.5t107.5 -164.5t40 -222q0 -123 -40 -220.5t-107.5 -164t-156.5 -101.5t-188 -35q-98 0 -187 35t-156.5 101.5t-107.5 164t-40 220.5zM297 496q0 -86 22.5 -156t64.5 -120t100.5 -77.5 t129.5 -27.5q72 0 130.5 27.5t100.5 77.5t64.5 120t22.5 156t-22.5 156.5t-64.5 121.5t-100.5 79t-130.5 28t-130 -28t-100 -79t-64.5 -121.5t-22.5 -156.5zM379 1477h184l185 -303h-130z" />
<glyph unicode="&#xf3;" d="M123 496q0 125 40 222t107.5 164.5t156.5 102.5t187 35t187.5 -35t157 -102.5t107.5 -164.5t40 -222q0 -123 -40 -220.5t-107.5 -164t-156.5 -101.5t-188 -35q-98 0 -187 35t-156.5 101.5t-107.5 164t-40 220.5zM297 496q0 -86 22.5 -156t64.5 -120t100.5 -77.5 t129.5 -27.5q72 0 130.5 27.5t100.5 77.5t64.5 120t22.5 156t-22.5 156.5t-64.5 121.5t-100.5 79t-130.5 28t-130 -28t-100 -79t-64.5 -121.5t-22.5 -156.5zM481 1174l185 303h184l-240 -303h-129z" />
<glyph unicode="&#xf4;" d="M123 496q0 125 40 222t107.5 164.5t156.5 102.5t187 35t187.5 -35t157 -102.5t107.5 -164.5t40 -222q0 -123 -40 -220.5t-107.5 -164t-156.5 -101.5t-188 -35q-98 0 -187 35t-156.5 101.5t-107.5 164t-40 220.5zM297 496q0 -86 22.5 -156t64.5 -120t100.5 -77.5 t129.5 -27.5q72 0 130.5 27.5t100.5 77.5t64.5 120t22.5 156t-22.5 156.5t-64.5 121.5t-100.5 79t-130.5 28t-130 -28t-100 -79t-64.5 -121.5t-22.5 -156.5zM344 1174l199 303h143l199 -303h-129l-138 202h-8l-137 -202h-129z" />
<glyph unicode="&#xf5;" d="M123 496q0 125 40 222t107.5 164.5t156.5 102.5t187 35t187.5 -35t157 -102.5t107.5 -164.5t40 -222q0 -123 -40 -220.5t-107.5 -164t-156.5 -101.5t-188 -35q-98 0 -187 35t-156.5 101.5t-107.5 164t-40 220.5zM297 496q0 -86 22.5 -156t64.5 -120t100.5 -77.5 t129.5 -27.5q72 0 130.5 27.5t100.5 77.5t64.5 120t22.5 156t-22.5 156.5t-64.5 121.5t-100.5 79t-130.5 28t-130 -28t-100 -79t-64.5 -121.5t-22.5 -156.5zM324 1186q10 98 54 160.5t126 62.5q37 0 67.5 -17.5t56 -38t50 -38t49.5 -17.5q63 0 82 111h96q-10 -96 -54 -159.5 t-126 -63.5q-37 0 -67.5 17.5t-56.5 39t-50.5 38.5t-48.5 17q-63 0 -82 -112h-96z" />
<glyph unicode="&#xf6;" d="M123 496q0 125 40 222t107.5 164.5t156.5 102.5t187 35t187.5 -35t157 -102.5t107.5 -164.5t40 -222q0 -123 -40 -220.5t-107.5 -164t-156.5 -101.5t-188 -35q-98 0 -187 35t-156.5 101.5t-107.5 164t-40 220.5zM297 496q0 -86 22.5 -156t64.5 -120t100.5 -77.5 t129.5 -27.5q72 0 130.5 27.5t100.5 77.5t64.5 120t22.5 156t-22.5 156.5t-64.5 121.5t-100.5 79t-130.5 28t-130 -28t-100 -79t-64.5 -121.5t-22.5 -156.5zM307 1317q0 47 31 80t80 33q47 0 78.5 -33t31.5 -80t-31.5 -80t-78.5 -33q-49 0 -80 33t-31 80zM700 1317 q0 47 32 80t79 33q49 0 80 -33t31 -80t-31 -80t-80 -33q-47 0 -79 33t-32 80z" />
<glyph unicode="&#xf7;" d="M174 571v127h881v-127h-881zM504 266q0 47 31.5 78t78.5 31t79 -31t32 -78q0 -49 -31.5 -79.5t-79.5 -30.5q-47 0 -78.5 30.5t-31.5 79.5zM504 1004q0 47 31.5 77.5t78.5 30.5t79 -30.5t32 -77.5q0 -49 -32 -80t-79 -31t-78.5 30.5t-31.5 80.5z" />
<glyph unicode="&#xf8;" d="M123 496q0 125 40 222t107.5 164.5t156.5 102.5t187 35q170 0 299 -98l105 120l76 -59l-109 -127q55 -66 88 -157t33 -203q0 -123 -40 -220.5t-107.5 -164t-156.5 -101.5t-188 -35q-170 0 -299 99l-104 -121l-76 59l109 127q-55 66 -88 156t-33 201zM297 496 q0 -68 14.5 -125.5t40.5 -104.5l463 541q-39 37 -90 57.5t-111 20.5q-72 0 -130 -29t-100 -80t-64.5 -122.5t-22.5 -157.5zM412 188q84 -78 202 -77q72 0 130.5 28.5t100.5 78.5t64.5 121t22.5 157q0 68 -14.5 127t-40.5 106z" />
<glyph unicode="&#xf9;" d="M158 377v618h170v-596q0 -141 52 -209.5t177 -68.5q86 0 155.5 44t153.5 140v690h168v-995h-137l-14 174h-9q-76 -88 -164.5 -143.5t-205.5 -55.5q-180 0 -263 101.5t-83 300.5zM371 1477h184l185 -303h-130z" />
<glyph unicode="&#xfa;" d="M158 377v618h170v-596q0 -141 52 -209.5t177 -68.5q86 0 155.5 44t153.5 140v690h168v-995h-137l-14 174h-9q-76 -88 -164.5 -143.5t-205.5 -55.5q-180 0 -263 101.5t-83 300.5zM473 1174l185 303h184l-240 -303h-129z" />
<glyph unicode="&#xfb;" d="M158 377v618h170v-596q0 -141 52 -209.5t177 -68.5q86 0 155.5 44t153.5 140v690h168v-995h-137l-14 174h-9q-76 -88 -164.5 -143.5t-205.5 -55.5q-180 0 -263 101.5t-83 300.5zM336 1174l199 303h143l199 -303h-129l-138 202h-8l-137 -202h-129z" />
<glyph unicode="&#xfc;" d="M158 377v618h170v-596q0 -141 52 -209.5t177 -68.5q86 0 155.5 44t153.5 140v690h168v-995h-137l-14 174h-9q-76 -88 -164.5 -143.5t-205.5 -55.5q-180 0 -263 101.5t-83 300.5zM299 1317q0 47 31 80t80 33q47 0 78.5 -33t31.5 -80t-31.5 -80t-78.5 -33q-49 0 -80 33 t-31 80zM692 1317q0 47 32 80t79 33q49 0 80 -33t31 -80t-31 -80t-80 -33q-47 0 -79 33t-32 80z" />
<glyph unicode="&#xfd;" d="M100 995h170l244 -551q29 -66 60.5 -141.5t62.5 -146.5h8q27 72 54.5 146.5t52.5 141.5l217 551h159l-438 -1077q-29 -74 -65.5 -137.5t-88 -109.5t-118 -72.5t-150.5 -26.5q-74 0 -131 20l35 134q20 -6 44 -10.5t46 -4.5q104 0 170 60.5t103 152.5l30 74zM489 1174 l185 303h184l-240 -303h-129z" />
<glyph unicode="&#xfe;" d="M190 -420v1878h168v-411l-4 -179q72 70 160 111t176 41q100 0 178 -36t130.5 -102.5t80 -159.5t27.5 -210q0 -127 -38 -226.5t-100.5 -169t-144.5 -105.5t-170 -36q-74 0 -151.5 35t-145.5 94l2 -188v-336h-168zM358 233q72 -63 142.5 -89.5t124.5 -26.5q66 0 122 27.5 t97 77.5t64.5 124t23.5 166q0 164 -66.5 265.5t-216.5 101.5q-66 0 -139.5 -36t-151.5 -114v-496z" />
<glyph unicode="&#xff;" d="M100 995h170l244 -551q29 -66 60.5 -141.5t62.5 -146.5h8q27 72 54.5 146.5t52.5 141.5l217 551h159l-438 -1077q-29 -74 -65.5 -137.5t-88 -109.5t-118 -72.5t-150.5 -26.5q-74 0 -131 20l35 134q20 -6 44 -10.5t46 -4.5q104 0 170 60.5t103 152.5l30 74zM315 1317 q0 47 31 80t80 33q47 0 78.5 -33t31.5 -80t-31.5 -80t-78.5 -33q-49 0 -80 33t-31 80zM708 1317q0 47 32 80t79 33q49 0 80 -33t31 -80t-31 -80t-80 -33q-47 0 -79 33t-32 80z" />
<glyph unicode="&#x152;" d="M68 678q0 324 144 496t400 172h578v-144h-397v-424h303v-145h-303v-488h417v-145h-604q-127 0 -226 46t-169 133t-106.5 213t-36.5 286zM244 678q0 -258 86 -398.5t262 -140.5h43v1065h-43q-176 0 -262 -134t-86 -392z" />
<glyph unicode="&#x153;" d="M23 498q0 125 27.5 222t76.5 163.5t114.5 101.5t141.5 35q96 0 167 -62.5t112 -177.5q41 113 107.5 176.5t164.5 63.5q70 0 124 -37t90 -98.5t54.5 -144.5t18.5 -175q0 -29 -1 -52.5t-6 -55.5h-493q8 -156 67.5 -251t169.5 -95q53 0 93.5 17t81.5 46l59 -111 q-47 -35 -107.5 -61.5t-132.5 -26.5q-98 0 -171.5 58.5t-118.5 171.5q-88 -229 -279 -230q-78 0 -143.5 35t-113.5 101.5t-75.5 164t-27.5 222.5zM180 498q0 -86 13.5 -157t40 -121t65.5 -78.5t92 -28.5q45 0 83 28.5t64.5 78.5t41 121t14.5 157t-14.5 155.5t-41 120.5 t-64.5 79t-83 28q-53 0 -92 -28t-65.5 -79t-40 -120.5t-13.5 -155.5zM719 569h362q0 63 -8 121t-26.5 102t-49 69.5t-75.5 25.5q-92 0 -141.5 -85t-61.5 -233z" />
<glyph unicode="&#x178;" d="M78 1343h180l203 -399q39 -78 75.5 -154.5t77.5 -158.5h9q41 82 79.5 159.5t77.5 155.5l195 397h176l-451 -864v-479h-172v479zM338 1565q0 45 27.5 72.5t72.5 27.5q43 0 72 -27.5t29 -72.5q0 -43 -29 -72t-72 -29q-45 0 -72.5 29t-27.5 72zM690 1565q0 45 29 72.5 t72 27.5q45 0 72.5 -27.5t27.5 -72.5q0 -43 -27.5 -72t-72.5 -29q-43 0 -72 29t-29 72z" />
<glyph unicode="&#x2c6;" d="M344 1174l199 303h143l199 -303h-129l-138 202h-8l-137 -202h-129z" />
<glyph unicode="&#x2dc;" d="M324 1186q10 98 54 160.5t126 62.5q37 0 67.5 -17.5t56 -38t50 -38t49.5 -17.5q63 0 82 111h96q-10 -96 -54 -159.5t-126 -63.5q-37 0 -67.5 17.5t-56.5 39t-50.5 38.5t-48.5 17q-63 0 -82 -112h-96z" />
<glyph unicode="&#x2000;" horiz-adv-x="896" />
<glyph unicode="&#x2001;" horiz-adv-x="1792" />
<glyph unicode="&#x2002;" horiz-adv-x="896" />
<glyph unicode="&#x2003;" horiz-adv-x="1792" />
<glyph unicode="&#x2004;" horiz-adv-x="597" />
<glyph unicode="&#x2005;" horiz-adv-x="448" />
<glyph unicode="&#x2006;" horiz-adv-x="298" />
<glyph unicode="&#x2007;" horiz-adv-x="298" />
<glyph unicode="&#x2008;" horiz-adv-x="224" />
<glyph unicode="&#x2009;" horiz-adv-x="358" />
<glyph unicode="&#x200a;" horiz-adv-x="99" />
<glyph unicode="&#x2010;" d="M274 526v148h680v-148h-680z" />
<glyph unicode="&#x2011;" d="M274 526v148h680v-148h-680z" />
<glyph unicode="&#x2012;" d="M274 526v148h680v-148h-680z" />
<glyph unicode="&#x2013;" d="M164 526v148h901v-148h-901z" />
<glyph unicode="&#x2014;" d="M41 526v148h1147v-148h-1147z" />
<glyph unicode="&#x2018;" d="M428 963q0 154 78 275.5t217 193.5l55 -99q-96 -55 -150.5 -136t-60.5 -187q25 12 54 12q63 0 103 -41t40 -107q0 -72 -43 -114.5t-109 -42.5q-80 0 -132 64.5t-52 181.5z" />
<glyph unicode="&#x2019;" d="M444 815q98 53 152.5 134t60.5 190q-25 -12 -53 -13q-66 0 -105.5 40t-39.5 106q0 72 43 116t108 44q82 0 133.5 -66t51.5 -182q0 -154 -78 -275t-215 -192z" />
<glyph unicode="&#x201a;" d="M444 -363q98 53 152.5 134t60.5 190q-25 -12 -53 -13q-66 0 -105.5 40t-39.5 106q0 72 43 116t108 44q82 0 133.5 -66t51.5 -182q0 -154 -78 -275t-215 -192z" />
<glyph unicode="&#x201c;" d="M195 963q0 154 78 275.5t217 193.5l55 -99q-96 -55 -150.5 -136t-60.5 -187q25 12 54 12q63 0 103 -41t40 -107q0 -72 -43 -114.5t-109 -42.5q-80 0 -132 64.5t-52 181.5zM664 963q0 154 78 275.5t217 193.5l55 -99q-96 -55 -150.5 -136t-60.5 -187q25 12 54 12 q63 0 103 -41t40 -107q0 -72 -43 -114.5t-109 -42.5q-80 0 -132 64.5t-52 181.5z" />
<glyph unicode="&#x201d;" d="M211 815q98 53 152.5 134t60.5 190q-25 -12 -53 -13q-66 0 -105.5 40t-39.5 106q0 72 43 116t108 44q82 0 133.5 -66t51.5 -182q0 -154 -78 -275t-215 -192zM680 815q98 53 152.5 134t60.5 190q-25 -12 -53 -13q-66 0 -105.5 40t-39.5 106q0 72 43 116t108 44 q82 0 133.5 -66t51.5 -182q0 -154 -78 -275t-215 -192z" />
<glyph unicode="&#x201e;" d="M211 -363q98 53 152.5 134t60.5 190q-25 -12 -53 -13q-66 0 -105.5 40t-39.5 106q0 72 43 116t108 44q82 0 133.5 -66t51.5 -182q0 -154 -78 -275t-215 -192zM680 -363q98 53 152.5 134t60.5 190q-25 -12 -53 -13q-66 0 -105.5 40t-39.5 106q0 72 43 116t108 44 q82 0 133.5 -66t51.5 -182q0 -154 -78 -275t-215 -192z" />
<glyph unicode="&#x2022;" d="M309 621q0 68 24.5 123t66.5 95t97.5 61.5t116.5 21.5t116.5 -21.5t97.5 -61.5t67 -95.5t25 -122.5q0 -68 -25 -123.5t-67 -95.5t-97.5 -61.5t-116.5 -21.5t-116.5 21.5t-97.5 61.5t-66.5 95.5t-24.5 123.5z" />
<glyph unicode="&#x2026;" d="M66 129q0 70 42 112t101 42t100 -42t41 -112q0 -68 -41 -111t-100 -43t-101 43t-42 111zM471 129q0 70 42 112t101 42t101.5 -42t42.5 -112q0 -68 -42 -111t-102 -43q-59 0 -101 43t-42 111zM879 129q0 70 41 112t100 42t101 -42t42 -112q0 -68 -42 -111t-101 -43 t-100 43t-41 111z" />
<glyph unicode="&#x202f;" horiz-adv-x="358" />
<glyph unicode="&#x2039;" d="M403 434v164l314 328l80 -72l-260 -338l260 -340l-80 -70z" />
<glyph unicode="&#x203a;" d="M432 176l260 340l-260 338l80 72l313 -328v-164l-313 -328z" />
<glyph unicode="&#x205f;" horiz-adv-x="448" />
<glyph unicode="&#x20ac;" d="M119 481v88l121 9q-2 18 -2 36.5v36.5v32.5t2 33.5h-121v90l131 10q39 242 183.5 378t361.5 136q104 0 194 -46t152 -114l-101 -96q-53 53 -113.5 87t-138.5 34q-152 0 -243.5 -100.5t-120.5 -278.5h602v-100h-612q-2 -14 -2 -28.5v-31.5v-39.5t2 -37.5h530v-99h-518 q29 -174 119 -272t231 -98q88 0 154.5 36.5t128.5 108.5l100 -90q-78 -90 -172 -140.5t-221 -50.5q-201 0 -339 132.5t-177 373.5h-131z" />
<glyph unicode="&#x2122;" d="M-10 1274v110h516v-110h-197v-524h-123v524h-196zM598 750v634h145l93 -233l55 -164h8l53 164l90 233h146v-634h-113v280l15 215h-9l-145 -383h-86l-148 383h-8l15 -215v-280h-111z" />
<glyph unicode="&#x25fc;" horiz-adv-x="993" d="M0 0v993h993v-993h-993z" />
<glyph unicode="&#xfb01;" d="M106 858v127l136 10v158q0 154 70.5 242t219.5 88q47 0 89.5 -9.5t76.5 -23.5l-34 -129q-59 25 -113 25q-141 0 -141 -193v-158h211v-137h-211v-858h-168v858h-136zM793 1331q0 59 40 95t99 36t98 -35.5t39 -95.5q0 -59 -39 -95t-98 -36t-99 36t-40 95zM848 0v995h168 v-995h-168z" />
<glyph unicode="&#xfb02;" d="M117 858v127l135 10v158q0 154 70.5 242t220.5 88q47 0 89 -9.5t77 -23.5l-37 -129q-55 25 -113 25q-139 0 -139 -193v-158h211v-137h-211v-858h-168v858h-135zM821 201v1257h168v-1270q0 -41 14.5 -57t32.5 -16h15.5t21.5 4l23 -127q-18 -8 -41 -12.5t-56 -4.5 q-96 0 -137 57.5t-41 168.5z" />
</font>
</defs>
</svg>
