<?xml version="1.0" standalone="no"?>
<!DOCTYPE svg PUBLIC "-//W3C//DTD SVG 1.1//EN" "http://www.w3.org/Graphics/SVG/1.1/DTD/svg11.dtd" >
<svg xmlns="http://www.w3.org/2000/svg" xmlns:xlink="http://www.w3.org/1999/xlink" version="1.1">
<metadata></metadata>
<defs>
<font id="miriam_librebold" horiz-adv-x="0" >
<font-face units-per-em="1000" ascent="800" descent="-200" />
<missing-glyph horiz-adv-x="250" />
<glyph unicode="&#xfb01;" horiz-adv-x="807" d="M560 645q-6 6 -6 15v115q0 9 6 15t15 6h76q9 0 15 -6t6 -15v-115q0 -9 -6 -15t-15 -6h-76q-9 0 -15 6zM141 6q-6 6 -6 15v440h-79q-9 0 -15 6t-6 15v70q0 9 6 15t15 6h79v32q0 78 48.5 126t126.5 48h94q9 0 15 -6t6 -15v-68q0 -9 -6 -15t-15 -6h-95q-25 0 -39.5 -15.5 t-14.5 -41.5v-39h368q21 0 35.5 -14.5t14.5 -35.5v-409h81q9 0 15 -6t6 -15v-72q0 -9 -6 -15t-15 -6h-151q-21 0 -35.5 14.5t-14.5 35.5v411h-298v-440q0 -9 -6 -15t-15 -6h-78q-9 0 -15 6z" />
<glyph unicode="&#xfb02;" horiz-adv-x="819" d="M141 6q-6 6 -6 15v440h-79q-9 0 -15 6t-6 15v70q0 9 6 15t15 6h79v32q0 78 48.5 126t126.5 48h327q18 0 30.5 -12.5t12.5 -30.5v-622h91q9 0 15 -6t6 -15v-72q0 -9 -6 -15t-15 -6h-168q-18 0 -30.5 12.5t-12.5 30.5v623h-251q-25 0 -39.5 -15.5t-14.5 -41.5v-36h129 q9 0 15 -6t6 -15v-70q0 -9 -6 -15t-15 -6h-129v-440q0 -9 -6 -15t-15 -6h-78q-9 0 -15 6z" />
<glyph />
<glyph horiz-adv-x="333" />
<glyph unicode=" "  horiz-adv-x="250" />
<glyph unicode="&#x09;" horiz-adv-x="250" />
<glyph unicode="&#xa0;" horiz-adv-x="250" />
<glyph unicode="!" horiz-adv-x="334" d="M126 217q-6 6 -6 15v462q0 9 6 15t15 6h76q9 0 15 -6t6 -15v-462q0 -9 -6 -15t-15 -6h-76q-9 0 -15 6zM120.5 5q-24.5 24 -24.5 59t24.5 59t59.5 24q34 0 58 -24.5t24 -58.5t-24 -58.5t-58 -24.5q-35 0 -59.5 24z" />
<glyph unicode="&#x22;" horiz-adv-x="517" d="M52 453q-6 8 -3 18l57 225q1 8 8.5 13.5t16.5 5.5h99q10 0 16 -6t6 -15q0 -6 -3 -12l-116 -237h-64q-11 0 -17 8zM267 453q-6 8 -3 18l57 225q1 8 8.5 13.5t16.5 5.5h99q10 0 16 -6t6 -15q0 -6 -3 -12l-116 -237h-64q-11 0 -17 8z" />
<glyph unicode="#" horiz-adv-x="778" d="M106 332q-6 6 -6 15v52q0 9 6 15t15 6h123v132q0 9 6 15t15 6h57q9 0 15 -6t6 -15v-132h92v132q0 9 6 15t15 6h57q9 0 15 -6t6 -15v-132h123q9 0 15 -6t6 -15v-52q0 -9 -6 -15t-15 -6h-536q-9 0 -15 6zM250 6q-6 6 -6 15v132h-123q-9 0 -15 6t-6 15v52q0 9 6 15t15 6h536 q9 0 15 -6t6 -15v-52q0 -9 -6 -15t-15 -6h-123v-132q0 -9 -6 -15t-15 -6h-57q-9 0 -15 6t-6 15v132h-92v-132q0 -9 -6 -15t-15 -6h-57q-9 0 -15 6z" />
<glyph unicode="$" horiz-adv-x="562" d="M475 93q-28 -48 -79 -75.5t-117 -29.5l-13 -86q-1 -6 -6.5 -10t-11.5 -4h-62q-7 0 -11.5 5.5t-3.5 12.5l14 93q-65 17 -120 55q-5 3 -7 10.5t1 13.5l35 63q6 12 19 12q8 0 15 -4q43 -26 74 -36l30 199l-7 3q-68 29 -114.5 74t-46.5 132q0 61 27.5 108t76.5 73t113 26h14 l10 65q1 6 6.5 10t11.5 4h62q7 0 11.5 -5.5t3.5 -12.5l-12 -79q54 -17 93 -48q5 -3 7 -10.5t-1 -13.5l-33 -63q-6 -12 -19 -12q-8 0 -15 4q-24 16 -50 27l-29 -197q74 -31 118 -73.5t44 -122.5q0 -60 -28 -108zM201 476q16 -21 50 -40l27 178q-43 -1 -68 -25t-25 -62 q0 -30 16 -51zM359.5 135q22.5 24 22.5 59q0 27 -15 45.5t-45 33.5l-25 -169q40 7 62.5 31z" />
<glyph unicode="%" horiz-adv-x="810" d="M129.5 -3q-7.5 8 -7.5 21v65l359 444q-34 0 -72 10t-73 28q1 -12 1 -38q0 -97 -35.5 -148.5t-102.5 -51.5q-68 0 -103.5 51.5t-35.5 148.5t35.5 148t103.5 51q35 0 60 -11.5t56 -35.5q36 -26 56 -35q55 -25 103 -25q79 0 129 58l33 37q9 11 21 11q11 0 18.5 -8t7.5 -21 v-68l-512 -627q-10 -12 -23 -12q-11 0 -18.5 8zM233.5 441q10.5 24 10.5 84q0 62 -10.5 86.5t-34.5 24.5q-26 0 -36 -23.5t-10 -85.5q0 -61 10 -85.5t35 -24.5t35.5 24zM508.5 38.5q-35.5 51.5 -35.5 148.5t35.5 148t103.5 51q67 0 102.5 -51t35.5 -148t-35.5 -148.5 t-102.5 -51.5q-68 0 -103.5 51.5zM646.5 101q10.5 24 10.5 84q0 62 -10.5 86.5t-34.5 24.5q-26 0 -36 -23.5t-10 -85.5q0 -61 10 -85.5t35 -24.5t35.5 24z" />
<glyph unicode="&#x26;" horiz-adv-x="729" d="M502 -98l-71 108q-64 -23 -132 -23q-112 0 -178 53.5t-66 144.5q0 58 32.5 103.5t97.5 97.5q-25 42 -40 81.5t-15 81.5q0 51 23.5 92t64.5 64t92 23q47 0 85.5 -20t60 -54.5t21.5 -74.5q0 -53 -36 -100.5t-108 -108.5l139 -211q38 35 59 82t21 98v12q0 9 6 15t15 6h75 q9 0 15 -6t6 -15v-12q0 -79 -35.5 -151t-100.5 -123l52 -78q27 -41 49.5 -53.5t63.5 -12.5h40q9 0 15 -6t6 -15v-72q0 -9 -6 -15t-15 -6h-55q-118 0 -181 95zM346.5 528q18.5 23 18.5 43q0 23 -16 37.5t-42 14.5q-28 0 -44 -17.5t-16 -51.5q0 -43 28 -94q53 45 71.5 68z M368 106l-126 189q-39 -32 -54 -55t-15 -49q0 -45 34.5 -69t98.5 -24q30 0 62 8z" />
<glyph unicode="'" horiz-adv-x="302" d="M52 453q-6 8 -3 18l57 225q1 8 8.5 13.5t16.5 5.5h99q10 0 16 -6t6 -15q0 -6 -3 -12l-116 -237h-64q-11 0 -17 8z" />
<glyph unicode="(" horiz-adv-x="360" d="M224 -129q-65 80 -109.5 193.5t-44.5 254.5t44.5 254.5t109.5 193.5q8 11 21 11q9 0 19 -8l32 -26q8 -6 8 -17q0 -5 -3 -11q-50 -75 -84.5 -175.5t-34.5 -221.5q0 -123 35.5 -225.5t87.5 -178.5q1 -1 1 -5q0 -8 -10 -16l-32 -26q-10 -8 -19 -8q-13 0 -21 11z" />
<glyph unicode=")" horiz-adv-x="360" d="M95 -132l-32 26q-15 13 -9 21q52 76 87.5 178.5t35.5 225.5q0 121 -34.5 221.5t-84.5 175.5q-3 6 -3 11q0 11 8 17l32 26q10 8 19 8q13 0 21 -11q65 -80 109.5 -193.5t44.5 -254.5t-44.5 -254.5t-109.5 -193.5q-8 -11 -21 -11q-9 0 -19 8z" />
<glyph unicode="*" horiz-adv-x="481" d="M79 619q-9 3 -9 14q0 6 1 8l12 49q3 9 13 9q3 0 9 -2l100 -48l-8 101v2q0 6 4.5 10t10.5 4h56q7 0 11 -4.5t3 -11.5l-7 -101l98 48q3 2 10 2q9 0 12 -8l13 -49q1 -3 1 -9q0 -9 -9 -12l-160 -48zM200.5 384.5q-4.5 4.5 -3.5 11.5l8 101l-100 -48q-6 -2 -9 -2q-10 0 -13 9 l-12 49q-1 2 -1 8q0 11 9 14l161 46l160 -48q9 -3 9 -12q0 -6 -1 -9l-13 -49q-3 -8 -12 -8q-7 0 -10 2l-98 48l7 -101v-2q0 -7 -4 -10.5t-10 -3.5h-56q-7 0 -11.5 4.5z" />
<glyph unicode="+" horiz-adv-x="644" d="M579 354q6 -6 6 -15v-58q0 -9 -6 -15t-15 -6h-192v-194q0 -9 -6 -15t-15 -6h-58q-9 0 -15 6t-6 15v194h-194q-9 0 -15 6t-6 15v58q0 9 6 15t15 6h194v192q0 9 6 15t15 6h58q9 0 15 -6t6 -15v-192h192q9 0 15 -6z" />
<glyph unicode="," horiz-adv-x="293" d="M52 -109q-6 8 -3 18l57 195q2 8 9 13.5t16 5.5h99q10 0 16 -6t6 -14q0 -7 -3 -13l-116 -207h-64q-11 0 -17 8z" />
<glyph unicode="-" horiz-adv-x="474" d="M84 256q-6 6 -6 15v74q0 9 6 15t15 6h273q9 0 15 -6t6 -15v-74q0 -9 -6 -15t-15 -6h-273q-9 0 -15 6z" />
<glyph unicode="." horiz-adv-x="272" d="M76.5 0q-24.5 24 -24.5 59t24.5 59t59.5 24q34 0 58 -24.5t24 -58.5t-24 -58.5t-58 -24.5q-35 0 -59.5 24z" />
<glyph unicode="/" horiz-adv-x="438" d="M5.5 -52q-2.5 3 -0.5 8l324 791q5 12 18 12h79q4 0 6.5 -3t0.5 -8l-323 -791q-4 -12 -18 -12h-80q-4 0 -6.5 3z" />
<glyph unicode="0" horiz-adv-x="621" d="M121 81q-64 94 -64 277q0 182 64.5 276t188.5 94t188 -94t64 -276q0 -184 -63.5 -277.5t-188.5 -93.5t-189 94zM384 127q28 26 41 82t13 149t-13 148.5t-41 81t-75 25.5q-46 0 -74 -26t-41 -82.5t-13 -150.5q0 -135 30 -194t99 -59q46 0 74 26z" />
<glyph unicode="1" horiz-adv-x="461" d="M50 6q-6 6 -6 15v71q0 9 6 15t15 6h113v445h-84q-12 0 -20.5 8.5t-8.5 20.5v48l162 84h39q12 0 20.5 -8.5t8.5 -20.5v-577h113q9 0 15 -6t6 -15v-71q0 -9 -6 -15t-15 -6h-343q-9 0 -15 6z" />
<glyph unicode="2" horiz-adv-x="521" d="M60.5 12.5q-12.5 12.5 -12.5 29.5v80q0 79 21 124.5t65 78.5t148 94q36 21 52.5 46.5t16.5 56.5q0 42 -27.5 67t-76.5 25q-60 0 -125 -38q-6 -3 -13 -3q-12 0 -18 11l-33 60q-3 5 -3 10q0 11 9 17q40 27 90.5 42t103.5 15q100 0 156.5 -54t56.5 -148q0 -69 -34 -116.5 t-112 -97.5q-24 -15 -40 -24q-43 -26 -66 -43.5t-38 -42t-15 -57.5v-29h260q9 0 15 -6t6 -15v-74q0 -9 -6 -15t-15 -6h-335q-18 0 -30.5 12.5z" />
<glyph unicode="3" horiz-adv-x="558" d="M122 21q-63 34 -101 93q-4 5 -4 14q0 14 11 22l55 41q7 5 13 5q11 0 19 -11q27 -39 65 -61.5t76 -22.5q36 0 66.5 18t48.5 49.5t18 68.5q0 52 -35.5 90.5t-85.5 42.5l-28 -39q-6 -9 -17 -9q-6 0 -13 5l-57 41q-9 6 -9 17q0 7 4 12l145 204h-199q-9 0 -15 6t-6 15v72 q0 9 6 15t15 6h295q30 0 49 -19t19 -45q0 -23 -14 -41l-103 -141q74 -24 121 -87.5t47 -144.5q0 -67 -34 -124.5t-92 -91.5t-126 -34q-71 0 -134 34z" />
<glyph unicode="4" horiz-adv-x="601" d="M355 6q-6 6 -6 15v132h-278q-15 0 -25.5 10.5t-10.5 25.5v61l278 450q9 15 26 15h87q15 0 25.5 -10.5t10.5 -25.5v-413h73q9 0 15 -6t6 -15v-71q0 -9 -6 -15t-15 -6h-73v-132q0 -9 -6 -15t-15 -6h-71q-9 0 -15 6zM349 266v281l-173 -281h173z" />
<glyph unicode="5" horiz-adv-x="567" d="M409 449q53 -33 83 -88.5t30 -119.5q0 -68 -34.5 -126.5t-93.5 -93t-127 -34.5q-72 0 -135.5 34.5t-101.5 94.5q-4 5 -4 14q0 13 11 22q23 19 51 37q10 5 16 5q10 0 17 -10q26 -38 65.5 -60.5t80.5 -22.5q38 0 69.5 18.5t50 50.5t18.5 71q0 37 -18 68t-49 49.5t-67 18.5 q-28 0 -56 -11t-53 -32q-14 -11 -26 -11q-4 0 -14 2l-39 11q-8 2 -12 9t-3 14l51 322q2 15 14 24.5t27 9.5h289q9 0 15 -6t6 -15v-72q0 -9 -6 -15t-15 -6h-228l-21 -139q43 20 91 20q65 0 118 -33z" />
<glyph unicode="6" horiz-adv-x="600" d="M182 19.5q-56 32.5 -88.5 88.5t-32.5 123q0 86 7 150.5t28 118.5q37 99 123.5 157t193.5 58h24q9 0 15 -6t6 -15v-71q0 -9 -6 -15t-15 -6h-24q-83 0 -145.5 -44.5t-79.5 -126.5q27 22 61.5 33.5t65.5 11.5q65 0 118.5 -32.5t85 -89t31.5 -123.5q0 -66 -33 -122t-89.5 -89 t-122.5 -33q-67 0 -123 32.5zM368 118.5q29 17.5 46 47.5t17 65t-17.5 65t-46.5 48t-62 18q-53 0 -88.5 -37.5t-35.5 -93.5t35.5 -93t88.5 -37q34 0 63 17.5z" />
<glyph unicode="7" horiz-adv-x="484" d="M102 6q-6 6 -6 14q0 3 2 9l225 570h-276q-9 0 -15 6t-6 15v74q0 9 6 15t15 6h358q18 0 30.5 -12.5t12.5 -30.5v-69l-228 -583q-4 -9 -12 -14.5t-18 -5.5h-72q-10 0 -16 6z" />
<glyph unicode="8" horiz-adv-x="625" d="M179.5 17q-59.5 30 -93.5 82.5t-34 115.5q0 51 23 97.5t65 81.5q-26 25 -40 60t-14 73q0 56 30 102.5t81.5 73t113.5 26.5t113.5 -26.5t82 -72.5t30.5 -101q0 -76 -61 -151q46 -29 70.5 -72.5t24.5 -94.5q0 -62 -34.5 -113t-94.5 -81t-131 -30q-72 0 -131.5 30z M405.5 469q11.5 28 11.5 54q0 43 -30 70t-75 27t-75 -26t-30 -66q0 -46 42 -68.5t126 -40.5q19 22 30.5 50zM410 130q40 35 40 86q0 35 -21.5 55.5t-56 32t-102.5 26.5l-36 8q-28 -19 -44.5 -51.5t-16.5 -68.5q0 -53 39 -88t99 -35q59 0 99 35z" />
<glyph unicode="9" horiz-adv-x="600" d="M146 6q-6 6 -6 15v71q0 9 6 15t15 6h24q83 0 145.5 44.5t79.5 126.5q-27 -22 -61.5 -33.5t-65.5 -11.5q-65 0 -118.5 32.5t-85 89t-31.5 123.5q0 66 33 122t89.5 89t122.5 33q67 0 123 -32.5t88.5 -88.5t32.5 -123q0 -86 -7 -150.5t-28 -118.5q-37 -99 -123.5 -157 t-193.5 -58h-24q-9 0 -15 6zM381.5 390.5q35.5 37.5 35.5 93.5t-35.5 93t-88.5 37q-34 0 -63 -17.5t-46 -47.5t-17 -65t17.5 -65t46.5 -48t62 -18q53 0 88.5 37.5z" />
<glyph unicode=":" horiz-adv-x="323" d="M102 394q-6 6 -6 15v123q0 9 6 15t15 6h86q9 0 15 -6t6 -15v-123q0 -9 -6 -15t-15 -6h-86q-9 0 -15 6zM102 6q-6 6 -6 15v123q0 9 6 15t15 6h86q9 0 15 -6t6 -15v-123q0 -9 -6 -15t-15 -6h-86q-9 0 -15 6z" />
<glyph unicode=";" horiz-adv-x="316" d="M121 394q-6 6 -6 15v123q0 9 6 15t15 6h86q9 0 15 -6t6 -15v-123q0 -9 -6 -15t-15 -6h-86q-9 0 -15 6zM44.5 -109q-6.5 8 -3.5 18l57 195q2 8 9 13.5t16 5.5h99q10 0 16 -6t6 -14q0 -7 -3 -13l-116 -207h-64q-10 0 -16.5 8z" />
<glyph unicode="&#x3c;" horiz-adv-x="561" d="M72 238q-15 7 -15 23l2 75q0 16 15 23l405 170q2 1 6 1q7 0 12 -5t5 -12v-71q0 -8 -4.5 -14t-11.5 -9l-301 -121l299 -120q7 -3 11.5 -9t4.5 -14v-71q0 -9 -7.5 -14.5t-15.5 -1.5z" />
<glyph unicode="=" horiz-adv-x="644" d="M63 385q-6 6 -6 15v58q0 9 6 15t15 6h486q9 0 15 -6t6 -15v-58q0 -9 -6 -15t-15 -6h-486q-9 0 -15 6zM63 145q-6 6 -6 15v58q0 9 6 15t15 6h486q9 0 15 -6t6 -15v-58q0 -9 -6 -15t-15 -6h-486q-9 0 -15 6z" />
<glyph unicode="&#x3e;" horiz-adv-x="561" d="M76 67q-7 0 -12 5t-5 12v71q0 8 4.5 14t11.5 9l299 120l-301 121q-7 3 -11.5 9t-4.5 14v71q0 9 7.5 14.5t15.5 1.5l405 -170q15 -7 15 -23l2 -75q0 -16 -15 -23l-405 -170q-2 -1 -6 -1z" />
<glyph unicode="?" horiz-adv-x="478" d="M187 201q-14 0 -21 13q-23 46 -23 90q0 47 23 81t75 82q36 34 50 54t14 40q0 26 -19 42t-50 16q-27 0 -55.5 -12t-55.5 -33q-7 -5 -14 -5q-9 0 -15 9l-35 52q-4 5 -4 13q0 10 8 18q81 67 174 67q53 0 94 -21t63.5 -58.5t22.5 -85.5q0 -49 -21 -84t-55 -69l-19 -19 q-34 -32 -49 -51.5t-15 -40.5q0 -19 10 -45q2 -6 2 -9q0 -5 -3.5 -10t-8.5 -7l-65 -25zM154.5 -9.5q-24.5 24.5 -24.5 58.5q0 35 24.5 59t58.5 24q35 0 59 -24t24 -59q0 -34 -24 -58.5t-59 -24.5q-34 0 -58.5 24.5z" />
<glyph unicode="@" horiz-adv-x="958" d="M269 -53.5q-96 56.5 -152.5 152.5t-56.5 210t56.5 210t152.5 152.5t210 56.5t210 -56.5t152.5 -152.5t56.5 -210q0 -68 -24.5 -121t-68.5 -83t-99 -30q-40 0 -71.5 17.5t-49.5 49.5q-25 -29 -64.5 -47.5t-78.5 -18.5q-65 0 -107 38t-42 98q0 56 37.5 92t104.5 47l85 13 q20 3 28.5 11t8.5 26q0 27 -22.5 44.5t-56.5 17.5q-29 0 -51 -12.5t-41 -38.5q-7 -10 -15 -10q-5 0 -12 5l-37 29q-8 6 -8 15q0 6 3 10q25 44 68 68.5t94 24.5q76 0 123.5 -42.5t47.5 -110.5v-173q0 -28 17 -46t43 -18q41 0 68.5 41t27.5 104q0 89 -44 164t-119 119t-164 44 t-164 -44t-119 -119t-44 -164t44 -164t119 -119t164 -44h225q8 0 13 -5.5t5 -12.5v-56q0 -8 -5 -13t-13 -5h-225q-114 0 -210 56.5zM526.5 196.5q33.5 30.5 33.5 77.5v12l-116 -18q-59 -9 -59 -52q0 -23 17 -36.5t46 -13.5q45 0 78.5 30.5z" />
<glyph unicode="A" horiz-adv-x="637" d="M37 6.5q-7 6.5 -7 16.5q0 5 1 8l217 667q3 10 11.5 16t19.5 6h78q11 0 19.5 -6t11.5 -16l217 -667q1 -3 1 -8q0 -10 -7 -16.5t-17 -6.5h-72q-11 0 -19.5 6.5t-11.5 16.5l-45 144h-234l-45 -144q-3 -10 -11.5 -16.5t-19.5 -6.5h-70q-10 0 -17 6.5zM399 280l-82 267 l-82 -267h164z" />
<glyph unicode="B" horiz-adv-x="587" d="M90.5 12.5q-12.5 12.5 -12.5 30.5v629q0 18 12.5 30.5t30.5 12.5h177q56 0 102.5 -27t74 -72.5t27.5 -100.5q0 -74 -62 -127q51 -21 79 -65.5t28 -104.5t-29.5 -110t-79.5 -79t-110 -29h-207q-18 0 -30.5 12.5zM289 426q38 0 65.5 26t27.5 61q0 37 -27.5 63t-65.5 26h-91 v-176h91zM323 114q45 0 74 29t29 75q0 43 -29.5 71.5t-73.5 28.5h-125v-204h125z" />
<glyph unicode="C" horiz-adv-x="581" d="M190.5 22.5q-59.5 35.5 -94.5 96t-35 132.5v213q0 72 35 132.5t94.5 96t129.5 35.5q61 0 114 -22.5t90 -65.5q6 -7 6 -17t-8 -20l-44 -46q-8 -8 -16 -8q-10 0 -18 9q-48 53 -123 53q-37 0 -68.5 -20t-50.5 -54t-19 -73v-213q0 -39 19 -73t50.5 -54t68.5 -20q75 0 123 53 q8 9 17 9t17 -8l44 -46q9 -9 9 -20q0 -8 -6 -16q-38 -43 -91 -66t-114 -23q-70 0 -129.5 35.5z" />
<glyph unicode="D" horiz-adv-x="652" d="M90.5 12.5q-12.5 12.5 -12.5 30.5v629q0 18 12.5 30.5t30.5 12.5h196q77 0 140 -37t99.5 -101t36.5 -141v-157q0 -77 -36.5 -141t-99.5 -101t-140 -37h-196q-18 0 -30.5 12.5zM312 117q43 0 79.5 21.5t58 58t21.5 80.5v162q0 43 -21.5 79.5t-58 58t-79.5 21.5h-112v-481 h112z" />
<glyph unicode="E" horiz-adv-x="543" d="M90.5 12.5q-12.5 12.5 -12.5 30.5v629q0 18 12.5 30.5t30.5 12.5h341q9 0 15 -6t6 -15v-75q0 -9 -6 -15t-15 -6h-262v-170h195q9 0 15 -6t6 -15v-71q0 -9 -6 -15t-15 -6h-195v-198h262q9 0 15 -6t6 -15v-75q0 -9 -6 -15t-15 -6h-341q-18 0 -30.5 12.5z" />
<glyph unicode="F" horiz-adv-x="528" d="M84 6q-6 6 -6 15v651q0 18 12.5 30.5t30.5 12.5h341q9 0 15 -6t6 -15v-75q0 -9 -6 -15t-15 -6h-262v-187h195q9 0 15 -6t6 -15v-71q0 -9 -6 -15t-15 -6h-195v-277q0 -9 -6 -15t-15 -6h-80q-9 0 -15 6z" />
<glyph unicode="G" horiz-adv-x="642" d="M192.5 22.5q-60.5 35.5 -96 96t-35.5 132.5v213q0 72 35.5 132.5t96 96t132.5 35.5q63 0 117 -22.5t92 -65.5q6 -7 6 -17t-8 -20l-44 -46q-8 -8 -16 -8q-10 0 -18 9q-50 53 -128 53q-38 0 -71 -20t-52.5 -54t-19.5 -73v-213q0 -39 19.5 -73t52.5 -54t71 -20t71 19t52 52 t19 72v49h-134q-9 0 -15 6t-6 15v72q0 9 6 15t15 6h211q18 0 30.5 -12.5t12.5 -30.5v-116q0 -72 -35.5 -132.5t-96 -96t-131.5 -35.5q-72 0 -132.5 35.5z" />
<glyph unicode="H" horiz-adv-x="699" d="M84 6q-6 6 -6 15v673q0 9 6 15t15 6h80q9 0 15 -6t6 -15v-270h296v270q0 9 6 15t15 6h80q9 0 15 -6t6 -15v-673q0 -9 -6 -15t-15 -6h-80q-9 0 -15 6t-6 15v288h-296v-288q0 -9 -6 -15t-15 -6h-80q-9 0 -15 6z" />
<glyph unicode="I" horiz-adv-x="450" d="M63 6q-6 6 -6 15v69q0 9 6 15t15 6h85v493h-85q-9 0 -15 6t-6 15v69q0 9 6 15t15 6h292q9 0 15 -6t6 -15v-69q0 -9 -6 -15t-15 -6h-85v-493h85q9 0 15 -6t6 -15v-69q0 -9 -6 -15t-15 -6h-292q-9 0 -15 6z" />
<glyph unicode="J" horiz-adv-x="383" d="M32 6q-6 6 -6 15v73q0 9 6 15t15 6h74q25 0 39.5 15.5t14.5 42.5v521q0 9 6 15t15 6h80q9 0 15 -6t6 -15v-521q0 -49 -21.5 -88.5t-59.5 -62t-86 -22.5h-83q-9 0 -15 6z" />
<glyph unicode="K" horiz-adv-x="628" d="M492 0q-18 0 -29 14l-225 285h-38v-278q0 -9 -6 -15t-15 -6h-80q-9 0 -15 6t-6 15v673q0 9 6 15t15 6h80q9 0 15 -6t6 -15v-282h33l230 289q11 14 30 14h91q9 0 14.5 -5.5t5.5 -12.5q0 -6 -5 -13l-260 -322l261 -332q5 -7 5 -13q0 -7 -5.5 -12.5t-14.5 -5.5z" />
<glyph unicode="L" horiz-adv-x="485" d="M90.5 12.5q-12.5 12.5 -12.5 30.5v651q0 9 6 15t15 6h80q9 0 15 -6t6 -15v-577h232q9 0 15 -6t6 -15v-75q0 -9 -6 -15t-15 -6h-311q-18 0 -30.5 12.5z" />
<glyph unicode="M" horiz-adv-x="927" d="M403.5 0q-8.5 6 -11.5 16l-132 404l-25 90l-10 -93l-43 -392q-2 -11 -10 -18t-18 -7h-75q-11 0 -17 7t-5 18l83 663q1 13 10.5 21.5t23.5 8.5h91q11 0 19.5 -6.5t11.5 -16.5l150 -461l20 -69l20 68l151 463q3 10 11.5 16t19.5 6h83q14 0 23.5 -8.5t10.5 -21.5l83 -663 q1 -11 -5 -18t-17 -7h-78q-11 0 -19 7t-9 17l-45 400l-10 86l-26 -94l-129 -399q-3 -10 -11.5 -16.5t-19.5 -6.5h-76q-11 0 -19.5 6z" />
<glyph unicode="N" horiz-adv-x="699" d="M84 6q-6 6 -6 15v665q0 12 8.5 20.5t20.5 8.5h82q17 0 27 -15l240 -406l48 -84v484q0 9 6 15t15 6h72q9 0 15 -6t6 -15v-665q0 -12 -8.5 -20.5t-20.5 -8.5h-83q-17 0 -27 15l-248 420l-39 68v-482q0 -10 -6 -15.5t-15 -5.5h-72q-9 0 -15 6z" />
<glyph unicode="O" horiz-adv-x="654" d="M193 22.5q-61 35.5 -96.5 96t-35.5 132.5v213q0 72 35.5 132.5t96.5 96t133 35.5t133 -35.5t96.5 -96t35.5 -132.5v-213q0 -72 -35.5 -132.5t-96.5 -96t-133 -35.5t-133 35.5zM397 124q33 20 52.5 54t19.5 73v213q0 39 -19.5 73t-52.5 54t-71 20t-71 -20t-52.5 -54 t-19.5 -73v-213q0 -39 19.5 -73t52.5 -54t71 -20t71 20z" />
<glyph unicode="P" horiz-adv-x="573" d="M84 6q-6 6 -6 15v651q0 18 12.5 30.5t30.5 12.5h178q63 0 116.5 -31t85 -84t31.5 -115q0 -63 -31.5 -116t-85 -84t-116.5 -31h-99v-233q0 -9 -6 -15t-15 -6h-80q-9 0 -15 6zM294 369q48 0 82 34t34 82q0 47 -34 81t-82 34h-94v-231h94z" />
<glyph unicode="Q" horiz-adv-x="667" d="M751 -87q6 -6 6 -15v-70q0 -9 -6 -15t-15 -6h-52q-38 0 -71.5 12.5t-57.5 29t-67 49.5l-75 58q-21 17 -38 23.5t-49 6.5q-72 0 -133 35.5t-96.5 96t-35.5 132.5v214q0 72 35.5 132.5t96.5 96t133 35.5t133 -35.5t96.5 -96t35.5 -132.5v-214q0 -62 -27 -116t-74 -91 l52 -43q-1 1 19 -16q43 -35 68 -50t56 -15h51q9 0 15 -6zM202.5 177q19.5 -34 52.5 -54t71 -20t71 20t52.5 54t19.5 73v214q0 39 -19.5 73t-52.5 54t-71 20t-71 -20t-52.5 -54t-19.5 -73v-214q0 -39 19.5 -73z" />
<glyph unicode="R" horiz-adv-x="593" d="M84 6q-6 6 -6 15v651q0 18 12.5 30.5t30.5 12.5h187q61 0 112 -29t81 -79t30 -109q0 -72 -43 -128.5t-112 -77.5l166 -257q4 -7 4 -14q0 -9 -6.5 -15t-16.5 -6h-82q-17 0 -26 14l-166 267h-49v-260q0 -9 -6 -15t-15 -6h-80q-9 0 -15 6zM302 396q46 0 75.5 28.5t29.5 72.5 q0 45 -29.5 74t-75.5 29h-102v-204h102z" />
<glyph unicode="S" horiz-adv-x="546" d="M153.5 5.5q-52.5 17.5 -97.5 48.5q-5 3 -7 10.5t1 13.5l35 63q6 12 19 12q8 0 15 -4q75 -47 140 -47q53 0 83.5 25.5t30.5 66.5q0 27 -15 45.5t-40 31.5t-73 32l-29 12q-68 29 -114.5 74t-46.5 132q0 61 27.5 108t76.5 73t113 26q53 0 105.5 -17.5t94.5 -48.5 q5 -3 7 -10.5t-1 -13.5l-33 -63q-6 -12 -19 -12q-8 0 -15 4q-39 25 -74.5 36t-63.5 11q-45 0 -71 -24.5t-26 -62.5q0 -39 28.5 -64.5t91.5 -51.5q9 -3 68.5 -27.5t94.5 -71.5t35 -111q0 -62 -29.5 -110.5t-82.5 -75.5t-122 -27q-54 0 -106.5 17.5z" />
<glyph unicode="T" horiz-adv-x="581" d="M235 6q-6 6 -6 15v577h-168q-9 0 -15 6t-6 15v75q0 9 6 15t15 6h458q9 0 15 -6t6 -15v-75q0 -9 -6 -15t-15 -6h-168v-577q0 -9 -6 -15t-15 -6h-80q-9 0 -15 6z" />
<glyph unicode="U" horiz-adv-x="690" d="M207.5 24q-60.5 37 -95 101.5t-34.5 145.5v423q0 9 6 15t15 6h80q9 0 15 -6t6 -15v-428q0 -72 39.5 -116t104.5 -44q64 0 103.5 44t39.5 116v428q0 9 6 15t15 6h80q9 0 15 -6t6 -15v-423q0 -81 -34.5 -146t-95 -101.5t-135.5 -36.5q-76 0 -136.5 37z" />
<glyph unicode="V" horiz-adv-x="657" d="M269.5 1q-8.5 6 -11.5 16l-217 667q-1 3 -1 8q0 10 7 16.5t17 6.5h70q11 0 19.5 -6.5t11.5 -16.5l162 -522l162 522q3 10 11.5 16.5t19.5 6.5h72q10 0 17 -6.5t7 -16.5q0 -5 -1 -8l-217 -667q-3 -10 -11.5 -16t-19.5 -6h-78q-11 0 -19.5 6z" />
<glyph unicode="W" horiz-adv-x="1043" d="M245 3.5q-7 5.5 -9 13.5l-195 672q-1 2 -1 6q0 8 6 14t15 6h78q9 0 16 -5.5t9 -13.5l149 -514l143 514q2 8 9 13.5t16 5.5h78q9 0 16 -5.5t9 -13.5l149 -514l143 514q2 8 9 13.5t16 5.5h82q11 0 16.5 -8t2.5 -18l-200 -672q-2 -9 -9.5 -14t-16.5 -5h-95q-9 0 -16 5.5 t-9 13.5l-136 486l-138 -486q-2 -9 -9.5 -14t-16.5 -5h-95q-9 0 -16 5.5z" />
<glyph unicode="X" horiz-adv-x="653" d="M56 6.5q-7 6.5 -7 15.5q0 8 4 13l201 319l-206 326q-4 5 -4 13q0 9 7 15.5t17 6.5h88q6 0 12 -3t9 -8l149 -236l149 236q3 5 9 8t12 3h88q10 0 17 -6.5t7 -15.5q0 -8 -4 -13l-206 -326l201 -319q4 -5 4 -13q0 -9 -7 -15.5t-17 -6.5h-88q-6 0 -12 3t-9 8l-144 228 l-144 -228q-3 -5 -9 -8t-12 -3h-88q-10 0 -17 6.5z" />
<glyph unicode="Y" horiz-adv-x="615" d="M252 6q-6 6 -6 15v306l-211 353q-4 5 -4 13q0 9 7 15.5t17 6.5h83q14 0 20 -11l148 -257h2l148 257q6 11 20 11h83q10 0 17 -6.5t7 -15.5q0 -8 -4 -13l-211 -353v-306q0 -9 -6 -15t-15 -6h-80q-9 0 -15 6z" />
<glyph unicode="Z" horiz-adv-x="578" d="M63.5 17.5q-15.5 17.5 -15.5 40.5q0 16 7 27l306 513h-280q-9 0 -15 6t-6 15v75q0 9 6 15t15 6h391q23 0 39 -17.5t16 -40.5q0 -14 -7 -27l-307 -513h294q9 0 15 -6t6 -15v-75q0 -9 -6 -15t-15 -6h-406q-22 0 -37.5 17.5z" />
<glyph unicode="[" horiz-adv-x="339" d="M88.5 -182.5q-10.5 10.5 -10.5 25.5v952q0 15 10.5 25.5t25.5 10.5h163q9 0 15 -6t6 -15v-70q0 -9 -6 -15t-15 -6h-87v-800h87q9 0 15 -6t6 -15v-70q0 -9 -6 -15t-15 -6h-163q-15 0 -25.5 10.5z" />
<glyph unicode="\" horiz-adv-x="440" d="M329 -43l-323 791l-1 4q0 7 8 7h79q13 0 18 -12l324 -791l1 -4q0 -7 -8 -7h-80q-13 0 -18 12z" />
<glyph unicode="]" horiz-adv-x="341" d="M46 -187q-6 6 -6 15v70q0 9 6 15t15 6h87v800h-87q-9 0 -15 6t-6 15v70q0 9 6 15t15 6h163q15 0 25.5 -10.5t10.5 -25.5v-952q0 -15 -10.5 -25.5t-25.5 -10.5h-163q-9 0 -15 6z" />
<glyph unicode="^" horiz-adv-x="583" d="M65.5 337q-4.5 4 -4.5 11q0 3 2 9l171 347q2 5 7 8t10 3h83q5 0 10 -3t7 -8l167 -347q2 -6 2 -8q0 -7 -5 -11.5t-13 -4.5h-81q-5 0 -10 3t-7 8l-114 233l-113 -233q-2 -5 -7 -8t-10 -3h-82q-8 0 -12.5 4z" />
<glyph unicode="_" horiz-adv-x="544" d="M6 -144q-6 6 -6 15v72q0 9 6 15t15 6h488q9 0 15 -6t6 -15v-72q0 -9 -6 -15t-15 -6h-488q-9 0 -15 6z" />
<glyph unicode="`" horiz-adv-x="570" d="M261 644l-103 96q-5 5 -5 11t4 10.5t11 4.5h108q6 0 12 -3.5t8 -9.5l45 -97q2 -4 2 -7q0 -6 -4 -9.5t-11 -3.5h-46q-13 0 -21 8z" />
<glyph unicode="a" horiz-adv-x="575" d="M92.5 34.5q-52.5 47.5 -52.5 123.5q0 69 48 114.5t135 59.5q22 2 42 6q70 8 85 12q37 6 37 42q0 37 -30.5 59.5t-76.5 22.5q-81 0 -118 -59q-8 -13 -19 -13q-8 0 -13 4l-56 38q-9 6 -9 17q0 3 2 9q29 55 86 85.5t129 30.5q66 0 116 -25t77.5 -71t27.5 -106v-363 q0 -9 -6 -15t-15 -6h-68q-9 0 -15 5.5t-6 15.5v39q-69 -73 -164 -73q-84 0 -136.5 47.5zM312 114q35 20 56.5 52.5t21.5 68.5v20l-75 -11q-61 -7 -79 -11q-82 -15 -82 -71q0 -31 23 -49.5t61 -18.5q39 0 74 20z" />
<glyph unicode="b" horiz-adv-x="614" d="M249.5 6.5q-38.5 19.5 -64.5 57.5v-43q0 -9 -6 -15t-15 -6h-65q-9 0 -15 6t-6 15v724q0 9 6 15t15 6h78q9 0 15 -6t6 -15v-223q25 31 60.5 47.5t73.5 16.5q61 0 112 -31.5t81 -84.5t30 -114v-139q0 -61 -30.5 -114t-82 -84.5t-110.5 -31.5q-44 0 -82.5 19.5zM400.5 136.5 q34.5 34.5 34.5 83.5v133q0 49 -34.5 83.5t-83.5 34.5t-84 -34.5t-35 -83.5v-133q0 -49 35 -83.5t84 -34.5t83.5 34.5z" />
<glyph unicode="c" horiz-adv-x="527" d="M175.5 19q-54.5 32 -86.5 87t-32 120v121q0 65 32 120t86.5 87t119.5 32q50 0 96 -20.5t79 -57.5q7 -7 7 -16q0 -11 -9 -20l-43 -43q-7 -7 -16 -7t-17 9q-39 39 -97 39q-49 0 -83.5 -34.5t-34.5 -83.5v-131q0 -49 34.5 -83.5t83.5 -34.5q58 0 97 39q8 9 17 9t16 -7 l43 -43q9 -9 9 -20q0 -9 -7 -16q-33 -37 -79 -57.5t-96 -20.5q-65 0 -119.5 32z" />
<glyph unicode="d" horiz-adv-x="615" d="M169 18.5q-51 31.5 -81.5 84.5t-30.5 114v139q0 61 30 114t81 84.5t111 31.5q38 0 73.5 -12t61.5 -34v205q0 9 6 15t15 6h78q9 0 15 -6t6 -15v-724q0 -9 -6 -15t-15 -6h-65q-9 0 -15 6t-6 15v48q-27 -41 -65 -61.5t-84 -20.5q-58 0 -109 31.5zM379 136.5q35 34.5 35 83.5 v133q0 49 -35 83.5t-84 34.5t-83.5 -34.5t-34.5 -83.5v-133q0 -49 34.5 -83.5t83.5 -34.5t84 34.5z" />
<glyph unicode="e" horiz-adv-x="585" d="M175.5 32q-54.5 32 -86.5 87t-32 120v108q0 65 32 120t86.5 87t119.5 32t119.5 -32t86.5 -87t32 -120v-67q0 -18 -12.5 -30.5t-30.5 -12.5h-313v-5q0 -49 34.5 -83.5t83.5 -34.5h159q9 0 15 -6t6 -15v-72q0 -9 -6 -15t-15 -6h-159q-65 0 -119.5 32zM413 345v9 q0 49 -34.5 83.5t-83.5 34.5t-83.5 -34.5t-34.5 -83.5v-9h236z" />
<glyph unicode="f" horiz-adv-x="452" d="M141 6q-6 6 -6 15v440h-79q-9 0 -15 6t-6 15v70q0 9 6 15t15 6h79v32q0 78 48.5 126t126.5 48h94q9 0 15 -6t6 -15v-68q0 -9 -6 -15t-15 -6h-95q-25 0 -39.5 -15.5t-14.5 -41.5v-39h129q9 0 15 -6t6 -15v-70q0 -9 -6 -15t-15 -6h-129v-440q0 -9 -6 -15t-15 -6h-78 q-9 0 -15 6z" />
<glyph unicode="g" horiz-adv-x="598" d="M119.5 -171.5q-59.5 35.5 -59.5 110.5q0 55 38 95q-36 29 -36 80q0 34 16.5 64.5t45.5 52.5q-32 27 -49.5 65.5t-17.5 84.5q0 61 29.5 108t80 72.5t111.5 25.5q44 0 84 -14h197q9 0 15 -6t6 -15v-66q0 -9 -6 -15t-15 -6h-78q17 -39 17 -84q0 -60 -29.5 -106.5t-79.5 -72 t-111 -25.5q-46 0 -91 16q-21 -21 -21 -44q0 -20 15 -27.5t44 -9.5q40 -2 81 -2l45 -1q84 -2 136.5 -30t52.5 -106q0 -90 -72.5 -135t-188.5 -45q-100 0 -159.5 35.5zM352 309q27 27 27 72t-27 73t-74 28t-74.5 -28t-27.5 -73t27.5 -72t74.5 -27t74 27zM418 -42 q0 26 -19.5 34t-54.5 8h-98q-37 0 -61 3q-11 -18 -11 -42q0 -38 29.5 -51.5t84.5 -13.5q130 0 130 62z" />
<glyph unicode="h" horiz-adv-x="617" d="M84 6q-6 6 -6 15v724q0 9 6 15t15 6h78q9 0 15 -6t6 -15v-221q29 29 66 45.5t76 16.5q62 0 109.5 -26.5t73.5 -74t26 -109.5v-355q0 -9 -6 -15t-15 -6h-78q-9 0 -15 6t-6 15v340q0 53 -27 81.5t-76 28.5q-59 0 -93.5 -38.5t-34.5 -105.5v-306q0 -9 -6 -15t-15 -6h-78 q-9 0 -15 6z" />
<glyph unicode="i" horiz-adv-x="396" d="M153 646q-6 6 -6 15v109q0 9 6 15t15 6h68q9 0 15 -6t6 -15v-109q0 -9 -6 -15t-15 -6h-68q-9 0 -15 6zM156.5 14.5q-14.5 14.5 -14.5 35.5v409h-81q-9 0 -15 6t-6 15v72q0 9 6 15t15 6h151q21 0 35.5 -14.5t14.5 -35.5v-409h81q9 0 15 -6t6 -15v-72q0 -9 -6 -15t-15 -6 h-151q-21 0 -35.5 14.5z" />
<glyph unicode="j" horiz-adv-x="384" d="M190 646q-6 6 -6 15v109q0 9 6 15t15 6h68q9 0 15 -6t6 -15v-109q0 -9 -6 -15t-15 -6h-68q-9 0 -15 6zM283.5 558.5q14.5 -14.5 14.5 -35.5v-545q0 -49 -21 -88t-59 -61t-85 -22h-81q-9 0 -15 6t-6 15v72q0 9 6 15t15 6h72q25 0 39.5 15.5t14.5 41.5v479h-126q-9 0 -15 6 t-6 15v74q0 9 6 15t15 6h196q21 0 35.5 -14.5z" />
<glyph unicode="k" horiz-adv-x="585" d="M84 6q-6 6 -6 15v724q0 9 6 15t15 6h78q9 0 15 -6t6 -15v-376h34l179 192q11 12 27 12h91q9 0 15 -5.5t6 -13.5q0 -7 -6 -15l-215 -224l228 -284q5 -7 5 -13q0 -8 -5 -13t-14 -5h-89q-19 0 -31 15l-192 242h-33v-236q0 -9 -6 -15t-15 -6h-78q-9 0 -15 6z" />
<glyph unicode="l" horiz-adv-x="385" d="M138.5 12.5q-12.5 12.5 -12.5 30.5v607h-91q-9 0 -15 6t-6 15v74q0 9 6 15t15 6h168q18 0 30.5 -12.5t12.5 -30.5v-607h91q9 0 15 -6t6 -15v-74q0 -9 -6 -15t-15 -6h-168q-18 0 -30.5 12.5z" />
<glyph unicode="m" horiz-adv-x="948" d="M84 6q-6 6 -6 15v531q0 9 6 15t15 6h78q9 0 15 -6t6 -15v-52q29 43 68.5 64.5t83.5 21.5q55 0 97.5 -26t67.5 -74q28 47 75 73.5t101 26.5q87 0 138 -57.5t51 -152.5v-355q0 -9 -6 -15t-15 -6h-78q-9 0 -15 6t-6 15v340q0 53 -24 81.5t-69 28.5q-59 0 -93.5 -38.5 t-34.5 -105.5v-306q0 -9 -6 -15t-15 -6h-78q-9 0 -15 6t-6 15v340q0 53 -24 81.5t-69 28.5q-59 0 -93.5 -38.5t-34.5 -105.5v-306q0 -9 -6 -15t-15 -6h-78q-9 0 -15 6z" />
<glyph unicode="n" horiz-adv-x="617" d="M84 6q-6 6 -6 15v531q0 9 6 15t15 6h78q9 0 15 -6t6 -15v-47q28 38 66.5 59.5t84.5 21.5q57 0 102.5 -27t71.5 -75t26 -108v-355q0 -9 -6 -15t-15 -6h-78q-9 0 -15 6t-6 15v340q0 53 -27 81.5t-76 28.5q-59 0 -93.5 -38.5t-34.5 -105.5v-306q0 -9 -6 -15t-15 -6h-78 q-9 0 -15 6z" />
<glyph unicode="o" horiz-adv-x="592" d="M175.5 18.5q-54.5 31.5 -86.5 85.5t-32 117v131q0 63 32 117t86.5 85.5t119.5 31.5t119.5 -31.5t86.5 -85.5t32 -117v-131q0 -63 -32 -117t-86.5 -85.5t-119.5 -31.5t-119.5 31.5zM378.5 137.5q34.5 34.5 34.5 83.5v131q0 49 -34.5 83.5t-83.5 34.5t-83.5 -34.5 t-34.5 -83.5v-131q0 -49 34.5 -83.5t83.5 -34.5t83.5 34.5z" />
<glyph unicode="p" horiz-adv-x="614" d="M84 -187q-6 6 -6 15v724q0 9 6 15t15 6h65q9 0 15 -6t6 -15v-45q26 39 64.5 59t82.5 20q59 0 110.5 -31.5t82 -84.5t30.5 -114v-139q0 -61 -30 -114t-81 -84.5t-112 -31.5q-37 0 -71.5 15.5t-62.5 44.5v-219q0 -9 -6 -15t-15 -6h-78q-9 0 -15 6zM400.5 136.5 q34.5 34.5 34.5 83.5v133q0 49 -34.5 83.5t-83.5 34.5t-84 -34.5t-35 -83.5v-133q0 -49 35 -83.5t84 -34.5t83.5 34.5z" />
<glyph unicode="q" horiz-adv-x="615" d="M420 -187q-6 6 -6 15v219q-28 -29 -62.5 -44.5t-71.5 -15.5q-61 0 -112 31.5t-81 84.5t-30 114v139q0 61 30.5 114t82 84.5t110.5 31.5q44 0 82.5 -20t64.5 -59v45q0 9 6 15t15 6h65q9 0 15 -6t6 -15v-724q0 -9 -6 -15t-15 -6h-78q-9 0 -15 6zM379 136.5q35 34.5 35 83.5 v133q0 49 -35 83.5t-84 34.5t-83.5 -34.5t-34.5 -83.5v-133q0 -49 34.5 -83.5t83.5 -34.5t84 34.5z" />
<glyph unicode="r" horiz-adv-x="500" d="M60 6q-6 6 -6 15v74q0 9 6 15t15 6h76v344h-86q-9 0 -15 6t-6 15v71q0 9 6 15t15 6h155q18 0 30.5 -12.5t12.5 -30.5v-36l54 43q30 24 52 33.5t52 9.5h31q9 0 15 -6t6 -15v-77q0 -9 -6 -15t-15 -6h-26q-26 0 -45 -9t-58 -40l-55 -44v-252h99q9 0 15 -6t6 -15v-74 q0 -9 -6 -15t-15 -6h-292q-9 0 -15 6z" />
<glyph unicode="s" horiz-adv-x="500" d="M144 4q-50 17 -89 47q-5 4 -6.5 10.5t0.5 12.5q7 16 34 63q8 12 20 12q7 0 14 -4q36 -25 67.5 -36.5t66.5 -11.5q42 0 64 15.5t22 42.5q0 23 -19 36t-72 33l-36 14q-44 17 -75 36.5t-52.5 53.5t-21.5 85q0 79 52.5 125.5t139.5 46.5q51 0 100 -16.5t86 -45.5 q5 -4 6.5 -10.5t-0.5 -12.5q-9 -21 -30 -63q-6 -11 -19 -11q-7 0 -14 4q-69 45 -128 45q-34 0 -53.5 -14.5t-19.5 -40.5t22 -43.5t81 -40.5q57 -22 88.5 -37.5t58 -49t26.5 -86.5q0 -52 -26.5 -92t-74 -62t-108.5 -22q-54 0 -104 17z" />
<glyph unicode="t" horiz-adv-x="485" d="M173.5 48q-48.5 48 -48.5 126v287h-69q-9 0 -15 6t-6 15v70q0 9 6 15t15 6h69v108q0 9 6 15t15 6h78q9 0 15 -6t6 -15v-108h169q9 0 15 -6t6 -15v-71q0 -9 -6 -15t-15 -6h-169v-281q0 -30 17.5 -48t46.5 -18l105 -1q9 0 15 -6t6 -15v-70q0 -9 -6 -15t-15 -6h-114 q-78 0 -126.5 48z" />
<glyph unicode="u" horiz-adv-x="618" d="M163.5 14q-45.5 27 -71.5 75t-26 108v355q0 9 6 15t15 6h78q9 0 15 -6t6 -15v-340q0 -53 27 -81.5t76 -28.5q59 0 93.5 38.5t34.5 105.5v306q0 9 6 15t15 6h78q9 0 15 -6t6 -15v-531q0 -9 -6 -15t-15 -6h-78q-9 0 -15 6t-6 15v47q-28 -38 -66.5 -59.5t-84.5 -21.5 q-57 0 -102.5 27z" />
<glyph unicode="v" horiz-adv-x="564" d="M240 -6q-23 0 -31 21l-185 526q-2 6 -2 9q0 10 7 16.5t18 6.5h70q10 0 18.5 -6t11.5 -16l135 -402l135 402q3 10 11.5 16t18.5 6h65q11 0 18 -6.5t7 -16.5q0 -3 -2 -9l-185 -526q-4 -10 -12.5 -16t-18.5 -6z" />
<glyph unicode="w" horiz-adv-x="894" d="M230 -6q-23 0 -31 21l-175 526q-2 6 -2 9q0 10 7 16.5t18 6.5h70q10 0 18.5 -6t11.5 -16l124 -404l111 404q3 10 11.5 16t18.5 6h70q10 0 18.5 -6t11.5 -16l120 -404l115 404q3 10 11.5 16t18.5 6h65q11 0 18 -6.5t7 -16.5q0 -3 -2 -9l-165 -526q-3 -10 -11.5 -16 t-19.5 -6l-79 1q-11 0 -19.5 5.5t-11.5 15.5l-113 379l-106 -379q-3 -10 -11.5 -16t-19.5 -6z" />
<glyph unicode="x" horiz-adv-x="574" d="M42 6.5q-7 6.5 -7 15.5q0 6 5 14l176 267l-153 234q-5 8 -5 14q0 9 7 15.5t17 6.5h81q14 0 25 -14l99 -152l98 152q10 14 25 14h81q10 0 17 -6.5t7 -15.5q0 -6 -5 -14l-153 -234l176 -267q5 -8 5 -14q0 -9 -7 -15.5t-17 -6.5h-83q-15 0 -25 14l-119 185l-120 -185 q-10 -14 -25 -14h-83q-10 0 -17 6.5z" />
<glyph unicode="y" horiz-adv-x="569" d="M170 -184.5q-6 8.5 -2 19.5l52 148l-196 558q-2 6 -2 9q0 10 7 16.5t18 6.5h70q10 0 18.5 -6t11.5 -16l135 -399l135 399q3 10 11.5 16t18.5 6h65q11 0 18 -6.5t7 -16.5q0 -3 -2 -9l-251 -712q-4 -10 -12 -16t-19 -6h-66q-11 0 -17 8.5z" />
<glyph unicode="z" horiz-adv-x="510" d="M94 3q-22 0 -38 17.5t-16 39.5q0 15 8 27l251 372h-227q-9 0 -15 6t-6 15v72q0 9 6 15t15 6h338q23 0 38.5 -17t15.5 -39q0 -16 -8 -28l-253 -375h244q9 0 15.5 -6.5t6.5 -15.5l-1 -71q0 -10 -6 -15.5t-15 -5.5z" />
<glyph unicode="{" horiz-adv-x="387" d="M156 -147q-45 46 -45 122v184q0 44 -2.5 62.5t-15 29.5t-41.5 17v103q29 6 41.5 17t15 29.5t2.5 62.5v183q0 75 46.5 121.5t122.5 46.5h50q9 0 15 -6t6 -15v-70q0 -21 -16 -21h-45q-27 0 -43.5 -17.5t-16.5 -45.5v-183q0 -57 -17.5 -95t-54.5 -59q72 -39 72 -153v-184 q0 -28 16.5 -45.5t43.5 -17.5h40q9 0 15 -6t6 -15v-70q0 -9 -6 -15t-15 -6h-50q-79 0 -124 46z" />
<glyph unicode="|" horiz-adv-x="348" d="M128.5 -188q-5.5 5 -5.5 13v946q0 8 5.5 13t12.5 5h62q8 0 13 -5t5 -13v-946q0 -8 -5 -13t-13 -5h-62q-7 0 -12.5 5z" />
<glyph unicode="}" horiz-adv-x="388" d="M41 -187q-6 6 -6 15v70q0 9 6 15t15 6h40q27 0 43.5 17.5t16.5 45.5v184q0 114 72 153q-37 21 -54.5 59t-17.5 95v183q0 28 -16.5 45.5t-43.5 17.5h-45q-16 0 -16 21v70q0 9 6 15t15 6h50q76 0 122.5 -46.5t46.5 -121.5v-183q0 -44 2.5 -62.5t15 -29.5t41.5 -17v-103 q-29 -6 -41.5 -17t-15 -29.5t-2.5 -62.5v-184q0 -76 -45 -122t-124 -46h-50q-9 0 -15 6z" />
<glyph unicode="&#xa1;" horiz-adv-x="343" d="M120 445.5q-24 24.5 -24 58.5t24 58.5t58 24.5q35 0 59.5 -24t24.5 -59t-24.5 -59t-59.5 -24q-34 0 -58 24.5zM126 -141q-6 6 -6 15v462q0 9 6 15t15 6h76q9 0 15 -6t6 -15v-462q0 -9 -6 -15t-15 -6h-76q-9 0 -15 6z" />
<glyph unicode="&#xa2;" horiz-adv-x="545" d="M468 101q9 -9 9 -20q0 -9 -7 -16q-33 -37 -79 -57.5t-96 -20.5q-15 0 -22 1l-20 -115q-1 -8 -6.5 -12.5t-13.5 -4.5h-58q-7 0 -12 5.5t-3 12.5l25 140q-58 31 -93 87.5t-35 124.5v121q0 64 30.5 118t82.5 86.5t115 34.5l19 107q1 8 6.5 12.5t13.5 4.5h58q7 0 12 -5.5 t3 -12.5l-21 -120q54 -20 94 -64q7 -7 7 -16q0 -11 -9 -20l-43 -43q-7 -7 -16 -7t-17 9q-17 17 -36 26l-63 -354h2q58 0 97 39q8 9 17 9t16 -7zM207 142l57 324q-38 -11 -62.5 -42.5t-24.5 -71.5v-131q0 -46 30 -79z" />
<glyph unicode="&#xa3;" horiz-adv-x="575" d="M519 109q6 -6 6 -15v-73q0 -9 -6 -15t-15 -6h-382q-26 0 -42 17t-16 43q0 12 2 19l59 243h-56q-9 0 -15 6t-6 15v66q0 9 6 15t15 6h82l29 120q21 88 72.5 133t132.5 45h103q9 0 15 -6t6 -15v-69q0 -9 -6 -15t-15 -6h-90q-43 0 -67.5 -23.5t-37.5 -75.5l-21 -88h142 q9 0 15 -6t6 -15v-66q0 -9 -6 -15t-15 -6h-168l-50 -207h308q9 0 15 -6z" />
<glyph unicode="&#xa4;" horiz-adv-x="655" d="M107 57l-38 38q-7 9 -7 15q0 8 7 15l58 58q-40 60 -40 132t40 132l-58 58q-7 9 -7 15q0 8 7 15l37 37q7 7 15 7q9 0 15 -7l58 -57q62 40 133 40q72 0 132 -40l59 57q6 7 15 7q8 0 14 -7l38 -37q6 -6 6 -15q0 -7 -6 -15l-59 -58q41 -61 41 -132q0 -70 -41 -132l59 -58 q6 -6 6 -15q0 -7 -6 -15l-38 -37q-6 -7 -15 -7q-8 0 -14 7l-59 57q-60 -40 -132 -40q-73 0 -133 40l-57 -58q-7 -7 -15 -7t-15 7zM397.5 193.5q32.5 18.5 51 51t18.5 70.5t-18.5 70.5t-51 51t-70.5 18.5t-70.5 -18.5t-51 -51t-18.5 -70.5t18.5 -70.5t51 -51t70.5 -18.5 t70.5 18.5z" />
<glyph unicode="&#xa5;" horiz-adv-x="624" d="M588 680l-163 -264h77q9 0 15 -6t6 -15v-52q0 -9 -6 -15t-15 -6h-129v-77h129q9 0 15 -6t6 -15v-48q0 -9 -6 -15t-15 -6h-129v-134q0 -9 -6 -15t-15 -6h-80q-9 0 -15 6t-6 15v134h-129q-9 0 -15 6t-6 15v48q0 9 6 15t15 6h129v77h-129q-9 0 -15 6t-6 15v52q0 9 6 15t15 6 h75l-162 264q-4 5 -4 13q0 9 7 15.5t17 6.5h81q14 0 20 -11l157 -262h1l157 262q3 5 8 8t10 3h80q10 0 16.5 -6t6.5 -15q0 -7 -4 -14z" />
<glyph unicode="&#xa6;" horiz-adv-x="364" d="M131 771q0 8 5.5 13t12.5 5h62q8 0 13 -5t5 -13v-331h-98v331zM136.5 -188q-5.5 5 -5.5 13v331h98v-331q0 -8 -5 -13t-13 -5h-62q-7 0 -12.5 5z" />
<glyph unicode="&#xa7;" horiz-adv-x="604" d="M96 -146q-5 4 -7 10t1 12q11 25 28 57q6 11 18 11q8 0 13 -4q36 -22 62 -32.5t57 -14.5q8 28 8 59q0 60 -24.5 115t-74.5 137q-53 87 -80 149t-27 133q0 78 29.5 137.5t84 92t125.5 32.5q95 0 197 -65q5 -4 7 -10t-1 -12q-11 -25 -28 -57q-6 -11 -18 -11q-8 0 -13 4 q-36 22 -62 32.5t-57 14.5q-8 -29 -8 -59q0 -41 20 -83.5t62 -111.5q39 -61 64 -108.5t42.5 -106.5t17.5 -124q0 -78 -30 -137.5t-84 -92t-125 -32.5q-95 0 -197 65zM422 46q0 71 -27.5 134.5t-81.5 152.5q-49 82 -73 136t-24 111q0 19 1 29q-37 -43 -37 -118 q0 -51 22.5 -101t69.5 -129q37 -62 59.5 -104.5t38.5 -94t16 -105.5q0 -19 -1 -28q37 43 37 117z" />
<glyph unicode="&#xa8;" horiz-adv-x="585" d="M115 642q-6 6 -6 15v88q0 9 6 15t15 6h78q9 0 15 -6t6 -15v-88q0 -9 -6 -15t-15 -6h-78q-9 0 -15 6zM348 642q-6 6 -6 15v88q0 9 6 15t15 6h78q9 0 15 -6t6 -15v-88q0 -9 -6 -15t-15 -6h-78q-9 0 -15 6z" />
<glyph unicode="&#xa9;" horiz-adv-x="978" d="M279 -72.5q-96 56.5 -152.5 152.5t-56.5 210t56.5 210t152.5 152.5t210 56.5t210 -56.5t152.5 -152.5t56.5 -210t-56.5 -210t-152.5 -152.5t-210 -56.5t-210 56.5zM655 4q76 44 120 120t44 166t-44 166t-120 120t-166 44t-166 -44t-120 -120t-44 -166t44 -166t120 -120 t166 -44t166 44zM402 75q-40 23 -63 63t-23 87v130q0 47 23 87t63 63t87 23q38 0 70.5 -11.5t55.5 -33.5q7 -7 7 -18q0 -9 -8 -19l-23 -25q-6 -6 -14 -6q-9 0 -16 6q-28 21 -66 21q-40 0 -65.5 -25t-25.5 -62v-130q0 -37 25.5 -62t65.5 -25q38 0 66 21q8 6 16 6t14 -6 l23 -25q9 -9 9 -20q0 -8 -6 -14q-23 -23 -56.5 -35.5t-71.5 -12.5q-47 0 -87 23z" />
<glyph unicode="&#xaa;" horiz-adv-x="417" d="M90.5 371q-33.5 31 -33.5 79q0 44 30.5 74t83.5 37l75 10q12 1 19 9.5t7 21.5v3q0 22 -19 36t-48 14q-43 0 -71 -40q-7 -10 -17 -10q-5 0 -10 3l-26 17q-11 8 -11 20q0 5 3 11q20 34 56 53t79 19q61 0 99 -34t38 -89v-239q0 -7 -5 -12.5t-13 -5.5h-34q-7 0 -12.5 5.5 t-5.5 12.5v22q-39 -48 -100 -48q-51 0 -84.5 31zM246 437.5q28 27.5 28 62.5v9q-16 -2 -26 -4q-40 -6 -69 -9q-26 -5 -37.5 -15t-11.5 -29t14 -30.5t38 -11.5q36 0 64 27.5z" />
<glyph unicode="&#xab;" horiz-adv-x="549" d="M230 83l-182 138v118l182 138q7 5 13 5q7 0 12 -5.5t5 -14.5v-86q0 -12 -11 -20l-109 -76l109 -76q11 -8 11 -20v-86q0 -9 -5 -14.5t-12 -5.5q-6 0 -13 5zM469 83l-182 138v118l182 138q7 5 13 5q7 0 12 -5.5t5 -14.5v-86q0 -12 -11 -20l-109 -76l109 -76q11 -8 11 -20 v-86q0 -9 -5 -14.5t-12 -5.5q-6 0 -13 5z" />
<glyph unicode="&#xac;" horiz-adv-x="644" d="M491 155q-6 6 -6 15v149h-407q-9 0 -15 6t-6 15v58q0 9 6 15t15 6h486q9 0 15 -6t6 -15v-228q0 -9 -6 -15t-15 -6h-58q-9 0 -15 6z" />
<glyph unicode="&#xad;" horiz-adv-x="474" d="M84 256q-6 6 -6 15v74q0 9 6 15t15 6h273q9 0 15 -6t6 -15v-74q0 -9 -6 -15t-15 -6h-273q-9 0 -15 6z" />
<glyph unicode="&#xae;" horiz-adv-x="978" d="M279 -72.5q-96 56.5 -152.5 152.5t-56.5 210t56.5 210t152.5 152.5t210 56.5t210 -56.5t152.5 -152.5t56.5 -210t-56.5 -210t-152.5 -152.5t-210 -56.5t-210 56.5zM655 4q76 44 120 120t44 166t-44 166t-120 120t-166 44t-166 -44t-120 -120t-44 -166t44 -166t120 -120 t166 -44t166 44zM357.5 70.5q-5.5 5.5 -5.5 12.5v400q0 15 10.5 25.5t25.5 10.5h115q40 0 73.5 -18.5t53 -50.5t19.5 -69q0 -44 -25.5 -79.5t-67.5 -50.5l105 -166q2 -3 2 -8t-3.5 -8.5t-9.5 -3.5h-59q-14 0 -20 11l-109 167h-23v-160q0 -7 -5 -12.5t-13 -5.5h-51 q-7 0 -12.5 5.5zM499 321q28 0 45.5 16.5t17.5 42.5t-17.5 42.5t-45.5 16.5h-60v-118h60z" />
<glyph unicode="&#xaf;" horiz-adv-x="585" d="M137 665q-6 6 -6 15v55q0 9 6 15t15 6h262q9 0 15 -6t6 -15v-55q0 -9 -6 -15t-15 -6h-262q-9 0 -15 6z" />
<glyph unicode="&#xb0;" horiz-adv-x="466" d="M149 418.5q-38 22.5 -60.5 60.5t-22.5 83t22.5 83t60.5 60.5t83 22.5t83 -22.5t60.5 -60.5t22.5 -83t-22.5 -83t-60.5 -60.5t-83 -22.5t-83 22.5zM278.5 516q19.5 20 19.5 46q0 27 -20 46.5t-46 19.5q-27 0 -46.5 -20t-19.5 -46q0 -27 20 -46.5t46 -19.5q27 0 46.5 20z " />
<glyph unicode="&#xb1;" horiz-adv-x="604" d="M539 481q6 -6 6 -15v-58q0 -9 -6 -15t-15 -6h-172v-174q0 -9 -6 -15t-15 -6h-58q-9 0 -15 6t-6 15v174h-174q-9 0 -15 6t-6 15v58q0 9 6 15t15 6h174v172q0 9 6 15t15 6h58q9 0 15 -6t6 -15v-172h172q9 0 15 -6zM539 94q6 -6 6 -15v-58q0 -9 -6 -15t-15 -6h-446 q-9 0 -15 6t-6 15v58q0 9 6 15t15 6h446q9 0 15 -6z" />
<glyph unicode="&#xb2;" horiz-adv-x="334" d="M56 354.5q-8 7.5 -8 18.5v54q0 35 14 59t33 38t50 31q39 22 52 35t13 28q0 18 -13 29.5t-37 11.5q-29 0 -68 -25q-2 -2 -8 -2q-7 0 -11 7l-20 37q-1 2 -1 7q0 7 5 11q51 36 107 36q55 0 87.5 -29t32.5 -79q0 -46 -23.5 -71.5t-65.5 -49.5l-20 -12q-29 -16 -41 -26.5 t-12 -26.5v-17h138q5 0 9 -4t4 -9v-46q0 -5 -4 -9t-9 -4h-185q-11 0 -19 7.5z" />
<glyph unicode="&#xb3;" horiz-adv-x="343" d="M85 355q-35 21 -52 56q-2 3 -2 8q0 11 9 17l30 19q6 3 11 3q13 0 20 -12q11 -17 27.5 -26.5t33.5 -9.5q22 0 37.5 16t15.5 39t-15 38.5t-37 15.5h-3l-11 -15q-5 -6 -11 -6q-5 0 -8 3l-34 25q-5 4 -6.5 10t2.5 10l69 96h-83q-6 0 -10 4t-4 10v45q0 6 4 10t10 4h142 q19 0 31 -11.5t12 -28.5q0 -13 -9 -27l-48 -66q39 -13 63 -44.5t24 -72.5q0 -35 -17.5 -65.5t-48 -48t-65.5 -17.5q-42 0 -77 21z" />
<glyph unicode="&#xb4;" horiz-adv-x="583" d="M207.5 642q-4.5 6 -0.5 14l45 97q2 6 8 9.5t12 3.5h108q7 0 11 -4.5t4 -10.5t-5 -11l-103 -96q-8 -8 -21 -8h-46q-8 0 -12.5 6z" />
<glyph unicode="&#xb5;" horiz-adv-x="622" d="M89 -187q-6 6 -6 15v724q0 9 6 15t15 6h78q9 0 15 -6t6 -15v-340q0 -53 27 -81.5t76 -28.5q59 0 93.5 38.5t34.5 105.5v306q0 9 6 15t15 6h78q9 0 15 -6t6 -15v-531q0 -9 -6 -15t-15 -6h-78q-9 0 -15 6t-6 15v47q-28 -38 -66.5 -59.5t-84.5 -21.5q-45 0 -80 16v-175 q0 -9 -6 -15t-15 -6h-78q-9 0 -15 6z" />
<glyph unicode="&#xb6;" horiz-adv-x="707" d="M268 -187.5q-6 5.5 -6 15.5v420q-59 5 -108 37.5t-77.5 84t-28.5 111.5q0 63 31.5 117t85.5 85.5t117 31.5h372q9 0 15 -6t6 -15v-72q0 -9 -6 -15t-15 -6h-79v-773q0 -9 -6 -15t-15 -6h-72q-9 0 -15 6t-6 15v773h-85v-773q0 -9 -6 -15t-15 -6h-72q-9 0 -15 5.5z" />
<glyph unicode="&#xb7;" horiz-adv-x="290" d="M85.5 220q-24.5 24 -24.5 59t24.5 59t59.5 24q34 0 58 -24.5t24 -58.5t-24 -58.5t-58 -24.5q-35 0 -59.5 24z" />
<glyph unicode="&#xb8;" horiz-adv-x="572" d="M197.5 -227q-5.5 4 -7.5 10l-17 43q-1 2 -1 6q0 9 11 14q17 5 29 20t12 41v13q0 7 4.5 12t11.5 5h65q10 0 16 -6t6 -15v-14q0 -50 -35 -83.5t-77 -48.5q-2 -1 -5 -1q-7 0 -12.5 4z" />
<glyph unicode="&#xb9;" horiz-adv-x="325" d="M52 351q-4 4 -4 10v47q0 6 4 10t10 4h61v210h-49q-9 0 -15 6t-6 15v33l101 42h25q9 0 15 -6t6 -15v-285h61q6 0 10 -4t4 -10v-47q0 -6 -4 -10t-10 -4h-199q-6 0 -10 4z" />
<glyph unicode="&#xba;" horiz-adv-x="428" d="M139.5 360q-33.5 20 -53.5 53.5t-20 73.5v94q0 40 20 73.5t53.5 53.5t73.5 20t73.5 -20t53.5 -53.5t20 -73.5v-94q0 -40 -20 -73.5t-53.5 -53.5t-73.5 -20t-73.5 20zM263 434.5q21 20.5 21 48.5v102q0 28 -21 48.5t-50 20.5t-50 -20.5t-21 -48.5v-102q0 -28 21 -48.5 t50 -20.5t50 20.5z" />
<glyph unicode="&#xbb;" horiz-adv-x="549" d="M53 83.5q-5 5.5 -5 14.5v86q0 12 11 20l109 76l-109 76q-11 8 -11 20v86q0 9 5 14.5t12 5.5q6 0 13 -5l182 -138v-118l-182 -138q-7 -5 -13 -5q-7 0 -12 5.5zM292 83.5q-5 5.5 -5 14.5v86q0 12 11 20l109 76l-109 76q-11 8 -11 20v86q0 9 5 14.5t12 5.5q6 0 13 -5 l182 -138v-118l-182 -138q-7 -5 -13 -5q-7 0 -12 5.5z" />
<glyph unicode="&#xbc;" horiz-adv-x="766" d="M110.5 -31.5q-4.5 4.5 -4.5 11.5v75l560 669q6 6 12 6t10.5 -4.5t4.5 -11.5v-76l-560 -668q-6 -6 -12 -6t-10.5 4.5zM61 351q-4 4 -4 10v47q0 6 4 10t10 4h61v210h-49q-9 0 -15 6t-6 15v33l101 42h25q9 0 15 -6t6 -15v-285h61q6 0 10 -4t4 -10v-47q0 -6 -4 -10t-10 -4 h-199q-6 0 -10 4zM587 4q-4 4 -4 10v57h-124q-12 0 -20.5 8.5t-8.5 20.5v31l134 217q4 7 11.5 11t15.5 4h52q6 0 10 -4t4 -10v-208h36q6 0 10 -4t4 -10v-42q0 -6 -4 -10t-10 -4h-36v-57q0 -6 -4 -10t-10 -4h-46q-6 0 -10 4zM583 141v112l-70 -112h70z" />
<glyph unicode="&#xbd;" horiz-adv-x="794" d="M110.5 -31.5q-4.5 4.5 -4.5 11.5v75l560 669q6 6 12 6t10.5 -4.5t4.5 -11.5v-76l-560 -668q-6 -6 -12 -6t-10.5 4.5zM61 351q-4 4 -4 10v47q0 6 4 10t10 4h61v210h-49q-9 0 -15 6t-6 15v33l101 42h25q9 0 15 -6t6 -15v-285h61q6 0 10 -4t4 -10v-47q0 -6 -4 -10t-10 -4 h-199q-6 0 -10 4zM507 7.5q-8 7.5 -8 18.5v54q0 35 14 59t33 38t50 31q39 22 52 35t13 28q0 18 -13 29.5t-37 11.5q-29 0 -68 -25q-2 -2 -8 -2q-7 0 -11 7l-20 37q-1 2 -1 7q0 7 5 11q51 36 107 36q55 0 87.5 -29t32.5 -79q0 -46 -23.5 -71.5t-65.5 -49.5l-20 -12 q-29 -16 -41 -26.5t-12 -26.5v-17h138q5 0 9 -4t4 -9v-46q0 -5 -4 -9t-9 -4h-185q-11 0 -19 7.5z" />
<glyph unicode="&#xbe;" horiz-adv-x="779" d="M121.5 -31.5q-4.5 4.5 -4.5 11.5v75l560 669q6 6 12 6t10.5 -4.5t4.5 -11.5v-76l-560 -668q-6 -6 -12 -6t-10.5 4.5zM111 355q-35 21 -52 56q-2 3 -2 8q0 11 9 17l30 19q6 3 11 3q13 0 20 -12q11 -17 27.5 -26.5t33.5 -9.5q22 0 37.5 16t15.5 39t-15 38.5t-37 15.5h-3 l-11 -15q-4 -6 -11 -6q-5 0 -8 3l-34 25q-5 4 -6.5 10t2.5 10l69 96h-83q-6 0 -10 4t-4 10v45q0 6 4 10t10 4h142q19 0 31 -11.5t12 -28.5q0 -13 -9 -27l-48 -66q39 -13 63 -44.5t24 -72.5q0 -35 -17.5 -65.5t-48 -48t-65.5 -17.5q-42 0 -77 21zM600 4q-4 4 -4 10v57h-124 q-12 0 -20.5 8.5t-8.5 20.5v31l134 217q4 7 11.5 11t15.5 4h52q6 0 10 -4t4 -10v-208h36q6 0 10 -4t4 -10v-42q0 -6 -4 -10t-10 -4h-36v-57q0 -6 -4 -10t-10 -4h-46q-6 0 -10 4zM596 141v112l-70 -112h70z" />
<glyph unicode="&#xbf;" horiz-adv-x="478" d="M204.5 442.5q-24.5 24.5 -24.5 58.5q0 35 24.5 59t58.5 24q35 0 59 -24t24 -59q0 -34 -24 -58.5t-59 -24.5q-34 0 -58.5 24.5zM143 -157q-41 21 -63.5 58.5t-22.5 85.5q0 49 21 84t55 69l19 19q34 32 49 51.5t15 40.5q0 19 -10 45q-2 6 -2 9q0 5 3.5 10t8.5 7l65 25l8 2 q15 0 21 -13q23 -46 23 -90q0 -47 -23 -81t-75 -82q-36 -34 -50 -54t-14 -40q0 -26 19 -42t50 -16q27 0 55.5 12t55.5 33q7 5 14 5q9 0 15 -9l35 -52q4 -5 4 -13q0 -10 -8 -18q-81 -67 -174 -67q-53 0 -94 21z" />
<glyph unicode="&#xc0;" horiz-adv-x="637" d="M37 6.5q-7 6.5 -7 16.5q0 5 1 8l217 667q3 10 11.5 16t19.5 6h78q11 0 19.5 -6t11.5 -16l217 -667q1 -3 1 -8q0 -10 -7 -16.5t-17 -6.5h-72q-11 0 -19.5 6.5t-11.5 16.5l-45 144h-234l-45 -144q-3 -10 -11.5 -16.5t-19.5 -6.5h-70q-10 0 -17 6.5zM399 280l-82 267 l-82 -267h164zM282 781l-103 96q-5 5 -5 11t4 10.5t11 4.5h108q6 0 12 -3.5t8 -9.5l45 -97q2 -4 2 -7q0 -6 -4 -9.5t-11 -3.5h-46q-13 0 -21 8z" />
<glyph unicode="&#xc1;" horiz-adv-x="637" d="M37 6.5q-7 6.5 -7 16.5q0 5 1 8l217 667q3 10 11.5 16t19.5 6h78q11 0 19.5 -6t11.5 -16l217 -667q1 -3 1 -8q0 -10 -7 -16.5t-17 -6.5h-72q-11 0 -19.5 6.5t-11.5 16.5l-45 144h-234l-45 -144q-3 -10 -11.5 -16.5t-19.5 -6.5h-70q-10 0 -17 6.5zM399 280l-82 267 l-82 -267h164zM277.5 779q-4.5 6 -0.5 14l45 97q2 6 8 9.5t12 3.5h108q7 0 11 -4.5t4 -10.5t-5 -11l-103 -96q-8 -8 -21 -8h-46q-8 0 -12.5 6z" />
<glyph unicode="&#xc2;" horiz-adv-x="637" d="M37 6.5q-7 6.5 -7 16.5q0 5 1 8l217 667q3 10 11.5 16t19.5 6h78q11 0 19.5 -6t11.5 -16l217 -667q1 -3 1 -8q0 -10 -7 -16.5t-17 -6.5h-72q-11 0 -19.5 6.5t-11.5 16.5l-45 144h-234l-45 -144q-3 -10 -11.5 -16.5t-19.5 -6.5h-70q-10 0 -17 6.5zM399 280l-82 267 l-82 -267h164zM166 777.5q-4 4.5 -4 9.5q0 4 3 8l80 99q7 9 19 9h112q12 0 19 -9l80 -99q3 -4 3 -8q0 -5 -4 -9.5t-10 -4.5h-57q-6 0 -12 3t-12 7l-63 39l-62 -39q-6 -4 -12 -7t-12 -3h-58q-6 0 -10 4.5z" />
<glyph unicode="&#xc3;" horiz-adv-x="637" d="M37 6.5q-7 6.5 -7 16.5q0 5 1 8l217 667q3 10 11.5 16t19.5 6h78q11 0 19.5 -6t11.5 -16l217 -667q1 -3 1 -8q0 -10 -7 -16.5t-17 -6.5h-72q-11 0 -19.5 6.5t-11.5 16.5l-45 144h-234l-45 -144q-3 -10 -11.5 -16.5t-19.5 -6.5h-70q-10 0 -17 6.5zM399 280l-82 267 l-82 -267h164zM346.5 778.5q-20.5 5.5 -47.5 15.5q-39 15 -54 15q-31 0 -38 -22q-2 -6 -6 -8.5t-10 -1.5l-38 11q-13 3 -11 17q7 44 40 71.5t74 27.5q19 0 38.5 -5.5t46.5 -15.5q41 -15 56 -15q28 0 37 22q6 13 17 10l37 -11q13 -3 10 -19q-7 -42 -39.5 -69.5t-72.5 -27.5 q-19 0 -39.5 5.5z" />
<glyph unicode="&#xc4;" horiz-adv-x="637" d="M37 6.5q-7 6.5 -7 16.5q0 5 1 8l217 667q3 10 11.5 16t19.5 6h78q11 0 19.5 -6t11.5 -16l217 -667q1 -3 1 -8q0 -10 -7 -16.5t-17 -6.5h-72q-11 0 -19.5 6.5t-11.5 16.5l-45 144h-234l-45 -144q-3 -10 -11.5 -16.5t-19.5 -6.5h-70q-10 0 -17 6.5zM399 280l-82 267 l-82 -267h164zM149 779q-6 6 -6 15v88q0 9 6 15t15 6h78q9 0 15 -6t6 -15v-88q0 -9 -6 -15t-15 -6h-78q-9 0 -15 6zM382 779q-6 6 -6 15v88q0 9 6 15t15 6h78q9 0 15 -6t6 -15v-88q0 -9 -6 -15t-15 -6h-78q-9 0 -15 6z" />
<glyph unicode="&#xc5;" horiz-adv-x="637" d="M249.5 787.5q-27.5 27.5 -27.5 66.5q0 40 27.5 67.5t67.5 27.5t67.5 -27.5t27.5 -67.5q0 -39 -27.5 -66.5t-67.5 -27.5t-67.5 27.5zM338.5 833q9.5 9 9.5 21q0 13 -9.5 22t-21.5 9t-21.5 -9t-9.5 -22q0 -12 9.5 -21t21.5 -9t21.5 9zM37 6.5q-7 6.5 -7 16.5q0 5 1 8 l217 667q3 10 11.5 16t19.5 6h78q11 0 19.5 -6t11.5 -16l217 -667q1 -3 1 -8q0 -10 -7 -16.5t-17 -6.5h-72q-11 0 -19.5 6.5t-11.5 16.5l-45 144h-234l-45 -144q-3 -10 -11.5 -16.5t-19.5 -6.5h-70q-10 0 -17 6.5zM399 280l-82 267l-82 -267h164z" />
<glyph unicode="&#xc6;" horiz-adv-x="894" d="M7.5 7q-7.5 7 -7.5 18q0 8 5 16l421 652q6 10 17 16t23 6h347q9 0 15 -6t6 -15v-75q0 -9 -6 -15t-15 -6h-262v-170h195q9 0 15 -6t6 -15v-71q0 -9 -6 -15t-15 -6h-195v-198h262q9 0 15 -6t6 -15v-75q0 -9 -6 -15t-15 -6h-341q-18 0 -30.5 12.5t-12.5 30.5v124h-201 l-95 -150q-11 -17 -31 -17h-75q-12 0 -19.5 7zM429 276v217l-134 -217h134z" />
<glyph unicode="&#xc7;" horiz-adv-x="581" d="M190.5 22.5q-59.5 35.5 -94.5 96t-35 132.5v213q0 72 35 132.5t94.5 96t129.5 35.5q61 0 114 -22.5t90 -65.5q6 -7 6 -17t-8 -20l-44 -46q-8 -8 -16 -8q-10 0 -18 9q-48 53 -123 53q-37 0 -68.5 -20t-50.5 -54t-19 -73v-213q0 -39 19 -73t50.5 -54t68.5 -20q75 0 123 53 q8 9 17 9t17 -8l44 -46q9 -9 9 -20q0 -8 -6 -16q-38 -43 -91 -66t-114 -23q-70 0 -129.5 35.5zM247.5 -227q-5.5 4 -7.5 10l-17 43q-1 2 -1 6q0 9 11 14q17 5 29 20t12 41v13q0 7 4.5 12t11.5 5h65q10 0 16 -6t6 -15v-14q0 -50 -35 -83.5t-77 -48.5q-2 -1 -5 -1 q-7 0 -12.5 4z" />
<glyph unicode="&#xc8;" horiz-adv-x="543" d="M90.5 12.5q-12.5 12.5 -12.5 30.5v629q0 18 12.5 30.5t30.5 12.5h341q9 0 15 -6t6 -15v-75q0 -9 -6 -15t-15 -6h-262v-170h195q9 0 15 -6t6 -15v-71q0 -9 -6 -15t-15 -6h-195v-198h262q9 0 15 -6t6 -15v-75q0 -9 -6 -15t-15 -6h-341q-18 0 -30.5 12.5zM249 781l-103 96 q-5 5 -5 11t4 10.5t11 4.5h108q6 0 12 -3.5t8 -9.5l45 -97q2 -4 2 -7q0 -6 -4 -9.5t-11 -3.5h-46q-13 0 -21 8z" />
<glyph unicode="&#xc9;" horiz-adv-x="543" d="M90.5 12.5q-12.5 12.5 -12.5 30.5v629q0 18 12.5 30.5t30.5 12.5h341q9 0 15 -6t6 -15v-75q0 -9 -6 -15t-15 -6h-262v-170h195q9 0 15 -6t6 -15v-71q0 -9 -6 -15t-15 -6h-195v-198h262q9 0 15 -6t6 -15v-75q0 -9 -6 -15t-15 -6h-341q-18 0 -30.5 12.5zM244.5 779 q-4.5 6 -0.5 14l45 97q2 6 8 9.5t12 3.5h108q7 0 11 -4.5t4 -10.5t-5 -11l-103 -96q-8 -8 -21 -8h-46q-8 0 -12.5 6z" />
<glyph unicode="&#xca;" horiz-adv-x="543" d="M90.5 12.5q-12.5 12.5 -12.5 30.5v629q0 18 12.5 30.5t30.5 12.5h341q9 0 15 -6t6 -15v-75q0 -9 -6 -15t-15 -6h-262v-170h195q9 0 15 -6t6 -15v-71q0 -9 -6 -15t-15 -6h-195v-198h262q9 0 15 -6t6 -15v-75q0 -9 -6 -15t-15 -6h-341q-18 0 -30.5 12.5zM133 777.5 q-4 4.5 -4 9.5q0 4 3 8l80 99q7 9 19 9h112q12 0 19 -9l80 -99q3 -4 3 -8q0 -5 -4 -9.5t-10 -4.5h-57q-6 0 -12 3t-12 7l-63 39l-62 -39q-6 -4 -12 -7t-12 -3h-58q-6 0 -10 4.5z" />
<glyph unicode="&#xcb;" horiz-adv-x="543" d="M90.5 12.5q-12.5 12.5 -12.5 30.5v629q0 18 12.5 30.5t30.5 12.5h341q9 0 15 -6t6 -15v-75q0 -9 -6 -15t-15 -6h-262v-170h195q9 0 15 -6t6 -15v-71q0 -9 -6 -15t-15 -6h-195v-198h262q9 0 15 -6t6 -15v-75q0 -9 -6 -15t-15 -6h-341q-18 0 -30.5 12.5zM116 779 q-6 6 -6 15v88q0 9 6 15t15 6h78q9 0 15 -6t6 -15v-88q0 -9 -6 -15t-15 -6h-78q-9 0 -15 6zM349 779q-6 6 -6 15v88q0 9 6 15t15 6h78q9 0 15 -6t6 -15v-88q0 -9 -6 -15t-15 -6h-78q-9 0 -15 6z" />
<glyph unicode="&#xcc;" horiz-adv-x="450" d="M63 6q-6 6 -6 15v69q0 9 6 15t15 6h85v493h-85q-9 0 -15 6t-6 15v69q0 9 6 15t15 6h292q9 0 15 -6t6 -15v-69q0 -9 -6 -15t-15 -6h-85v-493h85q9 0 15 -6t6 -15v-69q0 -9 -6 -15t-15 -6h-292q-9 0 -15 6zM187 781l-103 96q-5 5 -5 11t4 10.5t11 4.5h108q6 0 12 -3.5 t8 -9.5l45 -97q2 -4 2 -7q0 -6 -4 -9.5t-11 -3.5h-46q-13 0 -21 8z" />
<glyph unicode="&#xcd;" horiz-adv-x="450" d="M63 6q-6 6 -6 15v69q0 9 6 15t15 6h85v493h-85q-9 0 -15 6t-6 15v69q0 9 6 15t15 6h292q9 0 15 -6t6 -15v-69q0 -9 -6 -15t-15 -6h-85v-493h85q9 0 15 -6t6 -15v-69q0 -9 -6 -15t-15 -6h-292q-9 0 -15 6zM182.5 779q-4.5 6 -0.5 14l45 97q2 6 8 9.5t12 3.5h108 q7 0 11 -4.5t4 -10.5t-5 -11l-103 -96q-8 -8 -21 -8h-46q-8 0 -12.5 6z" />
<glyph unicode="&#xce;" horiz-adv-x="450" d="M63 6q-6 6 -6 15v69q0 9 6 15t15 6h85v493h-85q-9 0 -15 6t-6 15v69q0 9 6 15t15 6h292q9 0 15 -6t6 -15v-69q0 -9 -6 -15t-15 -6h-85v-493h85q9 0 15 -6t6 -15v-69q0 -9 -6 -15t-15 -6h-292q-9 0 -15 6zM71 777.5q-4 4.5 -4 9.5q0 4 3 8l80 99q7 9 19 9h112q12 0 19 -9 l80 -99q3 -4 3 -8q0 -5 -4 -9.5t-10 -4.5h-57q-6 0 -12 3t-12 7l-63 39l-62 -39q-6 -4 -12 -7t-12 -3h-58q-6 0 -10 4.5z" />
<glyph unicode="&#xcf;" horiz-adv-x="450" d="M63 6q-6 6 -6 15v69q0 9 6 15t15 6h85v493h-85q-9 0 -15 6t-6 15v69q0 9 6 15t15 6h292q9 0 15 -6t6 -15v-69q0 -9 -6 -15t-15 -6h-85v-493h85q9 0 15 -6t6 -15v-69q0 -9 -6 -15t-15 -6h-292q-9 0 -15 6zM54 779q-6 6 -6 15v88q0 9 6 15t15 6h78q9 0 15 -6t6 -15v-88 q0 -9 -6 -15t-15 -6h-78q-9 0 -15 6zM287 779q-6 6 -6 15v88q0 9 6 15t15 6h78q9 0 15 -6t6 -15v-88q0 -9 -6 -15t-15 -6h-78q-9 0 -15 6z" />
<glyph unicode="&#xd0;" horiz-adv-x="652" d="M457 678q63 -37 99.5 -101t36.5 -141v-157q0 -77 -36.5 -141t-99.5 -101t-140 -37h-196q-18 0 -30.5 12.5t-12.5 30.5v272h-60q-9 0 -15 6t-6 15v43q0 9 6 15t15 6h60v272q0 18 12.5 30.5t30.5 12.5h196q77 0 140 -37zM471 439q0 43 -21.5 79.5t-58 58t-79.5 21.5h-112 v-198h86q9 0 15 -6t6 -15v-43q0 -9 -6 -15t-15 -6h-86v-198h112q43 0 79.5 21.5t58 58t21.5 80.5v162z" />
<glyph unicode="&#xd1;" horiz-adv-x="699" d="M84 6q-6 6 -6 15v665q0 12 8.5 20.5t20.5 8.5h82q17 0 27 -15l240 -406l48 -84v484q0 9 6 15t15 6h72q9 0 15 -6t6 -15v-665q0 -12 -8.5 -20.5t-20.5 -8.5h-83q-17 0 -27 15l-248 420l-39 68v-482q0 -10 -6 -15.5t-15 -5.5h-72q-9 0 -15 6zM383.5 778.5 q-20.5 5.5 -47.5 15.5q-39 15 -54 15q-31 0 -38 -22q-2 -6 -6 -8.5t-10 -1.5l-38 11q-13 3 -11 17q7 44 40 71.5t74 27.5q19 0 38.5 -5.5t46.5 -15.5q41 -15 56 -15q28 0 37 22q6 13 17 10l37 -11q13 -3 10 -19q-7 -42 -39.5 -69.5t-72.5 -27.5q-19 0 -39.5 5.5z" />
<glyph unicode="&#xd2;" horiz-adv-x="654" d="M193 22.5q-61 35.5 -96.5 96t-35.5 132.5v213q0 72 35.5 132.5t96.5 96t133 35.5t133 -35.5t96.5 -96t35.5 -132.5v-213q0 -72 -35.5 -132.5t-96.5 -96t-133 -35.5t-133 35.5zM397 124q33 20 52.5 54t19.5 73v213q0 39 -19.5 73t-52.5 54t-71 20t-71 -20t-52.5 -54 t-19.5 -73v-213q0 -39 19.5 -73t52.5 -54t71 -20t71 20zM289 781l-103 96q-5 5 -5 11t4 10.5t11 4.5h108q6 0 12 -3.5t8 -9.5l45 -97q2 -4 2 -7q0 -6 -4 -9.5t-11 -3.5h-46q-13 0 -21 8z" />
<glyph unicode="&#xd3;" horiz-adv-x="654" d="M193 22.5q-61 35.5 -96.5 96t-35.5 132.5v213q0 72 35.5 132.5t96.5 96t133 35.5t133 -35.5t96.5 -96t35.5 -132.5v-213q0 -72 -35.5 -132.5t-96.5 -96t-133 -35.5t-133 35.5zM397 124q33 20 52.5 54t19.5 73v213q0 39 -19.5 73t-52.5 54t-71 20t-71 -20t-52.5 -54 t-19.5 -73v-213q0 -39 19.5 -73t52.5 -54t71 -20t71 20zM284.5 779q-4.5 6 -0.5 14l45 97q2 6 8 9.5t12 3.5h108q7 0 11 -4.5t4 -10.5t-5 -11l-103 -96q-8 -8 -21 -8h-46q-8 0 -12.5 6z" />
<glyph unicode="&#xd4;" horiz-adv-x="654" d="M193 22.5q-61 35.5 -96.5 96t-35.5 132.5v213q0 72 35.5 132.5t96.5 96t133 35.5t133 -35.5t96.5 -96t35.5 -132.5v-213q0 -72 -35.5 -132.5t-96.5 -96t-133 -35.5t-133 35.5zM397 124q33 20 52.5 54t19.5 73v213q0 39 -19.5 73t-52.5 54t-71 20t-71 -20t-52.5 -54 t-19.5 -73v-213q0 -39 19.5 -73t52.5 -54t71 -20t71 20zM173 777.5q-4 4.5 -4 9.5q0 4 3 8l80 99q7 9 19 9h112q12 0 19 -9l80 -99q3 -4 3 -8q0 -5 -4 -9.5t-10 -4.5h-57q-6 0 -12 3t-12 7l-63 39l-62 -39q-6 -4 -12 -7t-12 -3h-58q-6 0 -10 4.5z" />
<glyph unicode="&#xd5;" horiz-adv-x="654" d="M193 22.5q-61 35.5 -96.5 96t-35.5 132.5v213q0 72 35.5 132.5t96.5 96t133 35.5t133 -35.5t96.5 -96t35.5 -132.5v-213q0 -72 -35.5 -132.5t-96.5 -96t-133 -35.5t-133 35.5zM397 124q33 20 52.5 54t19.5 73v213q0 39 -19.5 73t-52.5 54t-71 20t-71 -20t-52.5 -54 t-19.5 -73v-213q0 -39 19.5 -73t52.5 -54t71 -20t71 20zM353.5 778.5q-20.5 5.5 -47.5 15.5q-39 15 -54 15q-31 0 -38 -22q-2 -6 -6 -8.5t-10 -1.5l-38 11q-13 3 -11 17q7 44 40 71.5t74 27.5q19 0 38.5 -5.5t46.5 -15.5q41 -15 56 -15q28 0 37 22q6 13 17 10l37 -11 q13 -3 10 -19q-7 -42 -39.5 -69.5t-72.5 -27.5q-19 0 -39.5 5.5z" />
<glyph unicode="&#xd6;" horiz-adv-x="654" d="M193 22.5q-61 35.5 -96.5 96t-35.5 132.5v213q0 72 35.5 132.5t96.5 96t133 35.5t133 -35.5t96.5 -96t35.5 -132.5v-213q0 -72 -35.5 -132.5t-96.5 -96t-133 -35.5t-133 35.5zM397 124q33 20 52.5 54t19.5 73v213q0 39 -19.5 73t-52.5 54t-71 20t-71 -20t-52.5 -54 t-19.5 -73v-213q0 -39 19.5 -73t52.5 -54t71 -20t71 20zM156 779q-6 6 -6 15v88q0 9 6 15t15 6h78q9 0 15 -6t6 -15v-88q0 -9 -6 -15t-15 -6h-78q-9 0 -15 6zM389 779q-6 6 -6 15v88q0 9 6 15t15 6h78q9 0 15 -6t6 -15v-88q0 -9 -6 -15t-15 -6h-78q-9 0 -15 6z" />
<glyph unicode="&#xd7;" horiz-adv-x="544" d="M485 158q0 -9 -6 -15l-41 -41q-7 -7 -15 -7q-6 0 -15 7l-137 137l-137 -137q-7 -7 -15 -7q-6 0 -15 7l-41 41q-6 6 -6 15q0 8 6 14l138 138l-136 135q-7 9 -7 15q0 8 7 15l41 41q6 6 15 6q8 0 14 -6l136 -136l136 136q6 6 15 6q8 0 14 -6l41 -41q7 -6 7 -15q0 -8 -7 -15 l-135 -135l137 -138q6 -6 6 -14z" />
<glyph unicode="&#xd8;" horiz-adv-x="671" d="M645 710.5q4 -4.5 4 -9.5q0 -3 -3 -8l-79 -105q31 -57 31 -124v-213q0 -72 -35.5 -132.5t-96.5 -96t-133 -35.5q-49 0 -93 16.5t-80 47.5l-31 -42q-6 -9 -18 -9h-75q-6 0 -9.5 4t-3.5 9t3 9l76 100q-34 59 -34 129v213q0 72 35.5 132.5t96.5 96t133 35.5q50 0 95 -17.5 t81 -49.5l34 45q8 9 18 9h74q6 0 10 -4.5zM190 240l246 325q-20 21 -47 33.5t-56 12.5q-38 0 -71 -20t-52.5 -54t-19.5 -73v-213v-11zM476 468l-243 -321q41 -43 100 -43q38 0 71 20t52.5 54t19.5 73v213v4z" />
<glyph unicode="&#xd9;" horiz-adv-x="690" d="M207.5 24q-60.5 37 -95 101.5t-34.5 145.5v423q0 9 6 15t15 6h80q9 0 15 -6t6 -15v-428q0 -72 39.5 -116t104.5 -44q64 0 103.5 44t39.5 116v428q0 9 6 15t15 6h80q9 0 15 -6t6 -15v-423q0 -81 -34.5 -146t-95 -101.5t-135.5 -36.5q-76 0 -136.5 37zM307 781l-103 96 q-5 5 -5 11t4 10.5t11 4.5h108q6 0 12 -3.5t8 -9.5l45 -97q2 -4 2 -7q0 -6 -4 -9.5t-11 -3.5h-46q-13 0 -21 8z" />
<glyph unicode="&#xda;" horiz-adv-x="690" d="M207.5 24q-60.5 37 -95 101.5t-34.5 145.5v423q0 9 6 15t15 6h80q9 0 15 -6t6 -15v-428q0 -72 39.5 -116t104.5 -44q64 0 103.5 44t39.5 116v428q0 9 6 15t15 6h80q9 0 15 -6t6 -15v-423q0 -81 -34.5 -146t-95 -101.5t-135.5 -36.5q-76 0 -136.5 37zM302.5 779 q-4.5 6 -0.5 14l45 97q2 6 8 9.5t12 3.5h108q7 0 11 -4.5t4 -10.5t-5 -11l-103 -96q-8 -8 -21 -8h-46q-8 0 -12.5 6z" />
<glyph unicode="&#xdb;" horiz-adv-x="690" d="M207.5 24q-60.5 37 -95 101.5t-34.5 145.5v423q0 9 6 15t15 6h80q9 0 15 -6t6 -15v-428q0 -72 39.5 -116t104.5 -44q64 0 103.5 44t39.5 116v428q0 9 6 15t15 6h80q9 0 15 -6t6 -15v-423q0 -81 -34.5 -146t-95 -101.5t-135.5 -36.5q-76 0 -136.5 37zM191 777.5 q-4 4.5 -4 9.5q0 4 3 8l80 99q7 9 19 9h112q12 0 19 -9l80 -99q3 -4 3 -8q0 -5 -4 -9.5t-10 -4.5h-57q-6 0 -12 3t-12 7l-63 39l-62 -39q-6 -4 -12 -7t-12 -3h-58q-6 0 -10 4.5z" />
<glyph unicode="&#xdc;" horiz-adv-x="690" d="M207.5 24q-60.5 37 -95 101.5t-34.5 145.5v423q0 9 6 15t15 6h80q9 0 15 -6t6 -15v-428q0 -72 39.5 -116t104.5 -44q64 0 103.5 44t39.5 116v428q0 9 6 15t15 6h80q9 0 15 -6t6 -15v-423q0 -81 -34.5 -146t-95 -101.5t-135.5 -36.5q-76 0 -136.5 37zM174 779q-6 6 -6 15 v88q0 9 6 15t15 6h78q9 0 15 -6t6 -15v-88q0 -9 -6 -15t-15 -6h-78q-9 0 -15 6zM407 779q-6 6 -6 15v88q0 9 6 15t15 6h78q9 0 15 -6t6 -15v-88q0 -9 -6 -15t-15 -6h-78q-9 0 -15 6z" />
<glyph unicode="&#xdd;" horiz-adv-x="615" d="M252 6q-6 6 -6 15v306l-211 353q-4 5 -4 13q0 9 7 15.5t17 6.5h83q14 0 20 -11l148 -257h2l148 257q6 11 20 11h83q10 0 17 -6.5t7 -15.5q0 -8 -4 -13l-211 -353v-306q0 -9 -6 -15t-15 -6h-80q-9 0 -15 6zM266.5 779q-4.5 6 -0.5 14l45 97q2 6 8 9.5t12 3.5h108 q7 0 11 -4.5t4 -10.5t-5 -11l-103 -96q-8 -8 -21 -8h-46q-8 0 -12.5 6z" />
<glyph unicode="&#xde;" horiz-adv-x="573" d="M84 6q-6 6 -6 15v673q0 9 6 15t15 6h80q9 0 15 -6t6 -15v-106h99q63 0 116.5 -31t85 -84t31.5 -115q0 -63 -31.5 -116t-85 -84t-116.5 -31h-99v-106q0 -9 -6 -15t-15 -6h-80q-9 0 -15 6zM294 242q48 0 82 34t34 82q0 47 -34 81t-82 34h-94v-231h94z" />
<glyph unicode="&#xdf;" horiz-adv-x="602" d="M84 -187q-6 6 -6 15v689q0 76 27.5 135.5t78.5 93t120 33.5q57 0 103 -22.5t72.5 -62.5t26.5 -91q0 -59 -30 -99.5t-78 -81.5q-13 -11 -23 -21t-10 -15q0 -8 39 -27q44 -23 75.5 -45t56.5 -60.5t25 -91.5q0 -51 -23.5 -90.5t-64.5 -62t-93 -22.5q-30 0 -64.5 7.5 t-56.5 18.5q-21 8 -21 30l1 61q0 10 6.5 15t13.5 5t20 -6q58 -24 97 -24q33 0 52 17.5t19 46.5q0 31 -21.5 50.5t-65.5 41.5q-35 19 -55 33t-34.5 36t-14.5 53q0 34 18.5 61t54.5 62q32 31 48 53.5t16 48.5q0 32 -25 52t-64 20q-52 0 -79 -39t-27 -108v-694q0 -9 -6 -15 t-15 -6h-78q-9 0 -15 6z" />
<glyph unicode="&#xe0;" horiz-adv-x="575" d="M92.5 34.5q-52.5 47.5 -52.5 123.5q0 69 48 114.5t135 59.5q22 2 42 6q70 8 85 12q37 6 37 42q0 37 -30.5 59.5t-76.5 22.5q-81 0 -118 -59q-8 -13 -19 -13q-8 0 -13 4l-56 38q-9 6 -9 17q0 3 2 9q29 55 86 85.5t129 30.5q66 0 116 -25t77.5 -71t27.5 -106v-363 q0 -9 -6 -15t-15 -6h-68q-9 0 -15 5.5t-6 15.5v39q-69 -73 -164 -73q-84 0 -136.5 47.5zM312 114q35 20 56.5 52.5t21.5 68.5v20l-75 -11q-61 -7 -79 -11q-82 -15 -82 -71q0 -31 23 -49.5t61 -18.5q39 0 74 20zM244 644l-103 96q-5 5 -5 11t4 10.5t11 4.5h108q6 0 12 -3.5 t8 -9.5l45 -97q2 -4 2 -7q0 -6 -4 -9.5t-11 -3.5h-46q-13 0 -21 8z" />
<glyph unicode="&#xe1;" horiz-adv-x="575" d="M92.5 34.5q-52.5 47.5 -52.5 123.5q0 69 48 114.5t135 59.5q22 2 42 6q70 8 85 12q37 6 37 42q0 37 -30.5 59.5t-76.5 22.5q-81 0 -118 -59q-8 -13 -19 -13q-8 0 -13 4l-56 38q-9 6 -9 17q0 3 2 9q29 55 86 85.5t129 30.5q66 0 116 -25t77.5 -71t27.5 -106v-363 q0 -9 -6 -15t-15 -6h-68q-9 0 -15 5.5t-6 15.5v39q-69 -73 -164 -73q-84 0 -136.5 47.5zM312 114q35 20 56.5 52.5t21.5 68.5v20l-75 -11q-61 -7 -79 -11q-82 -15 -82 -71q0 -31 23 -49.5t61 -18.5q39 0 74 20zM239.5 642q-4.5 6 -0.5 14l45 97q2 6 8 9.5t12 3.5h108 q7 0 11 -4.5t4 -10.5t-5 -11l-103 -96q-8 -8 -21 -8h-46q-8 0 -12.5 6z" />
<glyph unicode="&#xe2;" horiz-adv-x="575" d="M92.5 34.5q-52.5 47.5 -52.5 123.5q0 69 48 114.5t135 59.5q22 2 42 6q70 8 85 12q37 6 37 42q0 37 -30.5 59.5t-76.5 22.5q-81 0 -118 -59q-8 -13 -19 -13q-8 0 -13 4l-56 38q-9 6 -9 17q0 3 2 9q29 55 86 85.5t129 30.5q66 0 116 -25t77.5 -71t27.5 -106v-363 q0 -9 -6 -15t-15 -6h-68q-9 0 -15 5.5t-6 15.5v39q-69 -73 -164 -73q-84 0 -136.5 47.5zM312 114q35 20 56.5 52.5t21.5 68.5v20l-75 -11q-61 -7 -79 -11q-82 -15 -82 -71q0 -31 23 -49.5t61 -18.5q39 0 74 20zM128 640.5q-4 4.5 -4 9.5q0 4 3 8l80 99q7 9 19 9h112 q12 0 19 -9l80 -99q3 -4 3 -8q0 -5 -4 -9.5t-10 -4.5h-57q-6 0 -12 3t-12 7l-63 39l-62 -39q-6 -4 -12 -7t-12 -3h-58q-6 0 -10 4.5z" />
<glyph unicode="&#xe3;" horiz-adv-x="575" d="M92.5 34.5q-52.5 47.5 -52.5 123.5q0 69 48 114.5t135 59.5q22 2 42 6q70 8 85 12q37 6 37 42q0 37 -30.5 59.5t-76.5 22.5q-81 0 -118 -59q-8 -13 -19 -13q-8 0 -13 4l-56 38q-9 6 -9 17q0 3 2 9q29 55 86 85.5t129 30.5q66 0 116 -25t77.5 -71t27.5 -106v-363 q0 -9 -6 -15t-15 -6h-68q-9 0 -15 5.5t-6 15.5v39q-69 -73 -164 -73q-84 0 -136.5 47.5zM312 114q35 20 56.5 52.5t21.5 68.5v20l-75 -11q-61 -7 -79 -11q-82 -15 -82 -71q0 -31 23 -49.5t61 -18.5q39 0 74 20zM308.5 641.5q-20.5 5.5 -47.5 15.5q-39 15 -54 15 q-31 0 -38 -22q-2 -6 -6 -8.5t-10 -1.5l-38 11q-13 3 -11 17q7 44 40 71.5t74 27.5q19 0 38.5 -5.5t46.5 -15.5q41 -15 56 -15q28 0 37 22q6 13 17 10l37 -11q13 -3 10 -19q-7 -42 -39.5 -69.5t-72.5 -27.5q-19 0 -39.5 5.5z" />
<glyph unicode="&#xe4;" horiz-adv-x="575" d="M92.5 34.5q-52.5 47.5 -52.5 123.5q0 69 48 114.5t135 59.5q22 2 42 6q70 8 85 12q37 6 37 42q0 37 -30.5 59.5t-76.5 22.5q-81 0 -118 -59q-8 -13 -19 -13q-8 0 -13 4l-56 38q-9 6 -9 17q0 3 2 9q29 55 86 85.5t129 30.5q66 0 116 -25t77.5 -71t27.5 -106v-363 q0 -9 -6 -15t-15 -6h-68q-9 0 -15 5.5t-6 15.5v39q-69 -73 -164 -73q-84 0 -136.5 47.5zM312 114q35 20 56.5 52.5t21.5 68.5v20l-75 -11q-61 -7 -79 -11q-82 -15 -82 -71q0 -31 23 -49.5t61 -18.5q39 0 74 20zM111 642q-6 6 -6 15v88q0 9 6 15t15 6h78q9 0 15 -6t6 -15v-88 q0 -9 -6 -15t-15 -6h-78q-9 0 -15 6zM344 642q-6 6 -6 15v88q0 9 6 15t15 6h78q9 0 15 -6t6 -15v-88q0 -9 -6 -15t-15 -6h-78q-9 0 -15 6z" />
<glyph unicode="&#xe5;" horiz-adv-x="575" d="M92.5 34.5q-52.5 47.5 -52.5 123.5q0 69 48 114.5t135 59.5q22 2 42 6q70 8 85 12q37 6 37 42q0 37 -30.5 59.5t-76.5 22.5q-81 0 -118 -59q-8 -13 -19 -13q-8 0 -13 4l-56 38q-9 6 -9 17q0 3 2 9q29 55 86 85.5t129 30.5q66 0 116 -25t77.5 -71t27.5 -106v-363 q0 -9 -6 -15t-15 -6h-68q-9 0 -15 5.5t-6 15.5v39q-69 -73 -164 -73q-84 0 -136.5 47.5zM312 114q35 20 56.5 52.5t21.5 68.5v20l-75 -11q-61 -7 -79 -11q-82 -15 -82 -71q0 -31 23 -49.5t61 -18.5q39 0 74 20zM213.5 648.5q-27.5 27.5 -27.5 66.5q0 40 27.5 67.5t67.5 27.5 t67.5 -27.5t27.5 -67.5q0 -39 -27.5 -66.5t-67.5 -27.5t-67.5 27.5zM302.5 694q9.5 9 9.5 21q0 13 -9.5 22t-21.5 9t-21.5 -9t-9.5 -22q0 -12 9.5 -21t21.5 -9t21.5 9z" />
<glyph unicode="&#xe6;" horiz-adv-x="918" d="M92.5 34.5q-52.5 47.5 -52.5 123.5q0 69 48 114.5t135 59.5q22 2 42 6q70 8 85 12q37 7 37 42q0 37 -30.5 59.5t-76.5 22.5q-81 0 -118 -59q-8 -13 -19 -13q-8 0 -13 4l-56 38q-9 6 -9 17q0 3 2 9q29 55 86 85.5t129 30.5q56 0 101 -18.5t75 -52.5q33 34 77 52.5t93 18.5 q65 0 119.5 -32t86.5 -87t32 -120v-67q0 -18 -12.5 -30.5t-30.5 -12.5h-313v-5q0 -49 34.5 -83.5t83.5 -34.5h159q9 0 15 -6t6 -15v-72q0 -9 -6 -15t-15 -6h-159q-57 0 -106.5 24.5t-83.5 68.5q-38 -53 -92 -79.5t-117 -26.5q-84 0 -136.5 47.5zM746 345v9q0 49 -34.5 83.5 t-83.5 34.5t-83.5 -34.5t-34.5 -83.5v-9h236zM312 114q35 20 56.5 52.5t21.5 68.5v20l-75 -11q-61 -7 -79 -11q-82 -15 -82 -71q0 -31 23 -49.5t61 -18.5q39 0 74 20z" />
<glyph unicode="&#xe7;" horiz-adv-x="527" d="M175.5 19q-54.5 32 -86.5 87t-32 120v121q0 65 32 120t86.5 87t119.5 32q50 0 96 -20.5t79 -57.5q7 -7 7 -16q0 -11 -9 -20l-43 -43q-7 -7 -16 -7t-17 9q-39 39 -97 39q-49 0 -83.5 -34.5t-34.5 -83.5v-131q0 -49 34.5 -83.5t83.5 -34.5q58 0 97 39q8 9 17 9t16 -7 l43 -43q9 -9 9 -20q0 -9 -7 -16q-33 -37 -79 -57.5t-96 -20.5q-65 0 -119.5 32zM221.5 -227q-5.5 4 -7.5 10l-17 43q-1 2 -1 6q0 9 11 14q17 5 29 20t12 41v13q0 7 4.5 12t11.5 5h65q10 0 16 -6t6 -15v-14q0 -50 -35 -83.5t-77 -48.5q-2 -1 -5 -1q-7 0 -12.5 4z" />
<glyph unicode="&#xe8;" horiz-adv-x="585" d="M175.5 32q-54.5 32 -86.5 87t-32 120v108q0 65 32 120t86.5 87t119.5 32t119.5 -32t86.5 -87t32 -120v-67q0 -18 -12.5 -30.5t-30.5 -12.5h-313v-5q0 -49 34.5 -83.5t83.5 -34.5h159q9 0 15 -6t6 -15v-72q0 -9 -6 -15t-15 -6h-159q-65 0 -119.5 32zM413 345v9 q0 49 -34.5 83.5t-83.5 34.5t-83.5 -34.5t-34.5 -83.5v-9h236zM263 644l-103 96q-5 5 -5 11t4 10.5t11 4.5h108q6 0 12 -3.5t8 -9.5l45 -97q2 -4 2 -7q0 -6 -4 -9.5t-11 -3.5h-46q-13 0 -21 8z" />
<glyph unicode="&#xe9;" horiz-adv-x="585" d="M175.5 32q-54.5 32 -86.5 87t-32 120v108q0 65 32 120t86.5 87t119.5 32t119.5 -32t86.5 -87t32 -120v-67q0 -18 -12.5 -30.5t-30.5 -12.5h-313v-5q0 -49 34.5 -83.5t83.5 -34.5h159q9 0 15 -6t6 -15v-72q0 -9 -6 -15t-15 -6h-159q-65 0 -119.5 32zM413 345v9 q0 49 -34.5 83.5t-83.5 34.5t-83.5 -34.5t-34.5 -83.5v-9h236zM258.5 642q-4.5 6 -0.5 14l45 97q2 6 8 9.5t12 3.5h108q7 0 11 -4.5t4 -10.5t-5 -11l-103 -96q-8 -8 -21 -8h-46q-8 0 -12.5 6z" />
<glyph unicode="&#xea;" horiz-adv-x="585" d="M175.5 32q-54.5 32 -86.5 87t-32 120v108q0 65 32 120t86.5 87t119.5 32t119.5 -32t86.5 -87t32 -120v-67q0 -18 -12.5 -30.5t-30.5 -12.5h-313v-5q0 -49 34.5 -83.5t83.5 -34.5h159q9 0 15 -6t6 -15v-72q0 -9 -6 -15t-15 -6h-159q-65 0 -119.5 32zM413 345v9 q0 49 -34.5 83.5t-83.5 34.5t-83.5 -34.5t-34.5 -83.5v-9h236zM147 640.5q-4 4.5 -4 9.5q0 4 3 8l80 99q7 9 19 9h112q12 0 19 -9l80 -99q3 -4 3 -8q0 -5 -4 -9.5t-10 -4.5h-57q-6 0 -12 3t-12 7l-63 39l-62 -39q-6 -4 -12 -7t-12 -3h-58q-6 0 -10 4.5z" />
<glyph unicode="&#xeb;" horiz-adv-x="585" d="M175.5 32q-54.5 32 -86.5 87t-32 120v108q0 65 32 120t86.5 87t119.5 32t119.5 -32t86.5 -87t32 -120v-67q0 -18 -12.5 -30.5t-30.5 -12.5h-313v-5q0 -49 34.5 -83.5t83.5 -34.5h159q9 0 15 -6t6 -15v-72q0 -9 -6 -15t-15 -6h-159q-65 0 -119.5 32zM413 345v9 q0 49 -34.5 83.5t-83.5 34.5t-83.5 -34.5t-34.5 -83.5v-9h236zM130 642q-6 6 -6 15v88q0 9 6 15t15 6h78q9 0 15 -6t6 -15v-88q0 -9 -6 -15t-15 -6h-78q-9 0 -15 6zM363 642q-6 6 -6 15v88q0 9 6 15t15 6h78q9 0 15 -6t6 -15v-88q0 -9 -6 -15t-15 -6h-78q-9 0 -15 6z" />
<glyph unicode="&#xec;" horiz-adv-x="396" d="M156.5 14.5q-14.5 14.5 -14.5 35.5v409h-81q-9 0 -15 6t-6 15v72q0 9 6 15t15 6h151q21 0 35.5 -14.5t14.5 -35.5v-409h81q9 0 15 -6t6 -15v-72q0 -9 -6 -15t-15 -6h-151q-21 0 -35.5 14.5zM158 644l-103 96q-5 5 -5 11t4 10.5t11 4.5h108q6 0 12 -3.5t8 -9.5l45 -97 q2 -4 2 -7q0 -6 -4 -9.5t-11 -3.5h-46q-13 0 -21 8z" />
<glyph unicode="&#xed;" horiz-adv-x="396" d="M156.5 14.5q-14.5 14.5 -14.5 35.5v409h-81q-9 0 -15 6t-6 15v72q0 9 6 15t15 6h151q21 0 35.5 -14.5t14.5 -35.5v-409h81q9 0 15 -6t6 -15v-72q0 -9 -6 -15t-15 -6h-151q-21 0 -35.5 14.5zM153.5 642q-4.5 6 -0.5 14l45 97q2 6 8 9.5t12 3.5h108q7 0 11 -4.5t4 -10.5 t-5 -11l-103 -96q-8 -8 -21 -8h-46q-8 0 -12.5 6z" />
<glyph unicode="&#xee;" horiz-adv-x="396" d="M156.5 14.5q-14.5 14.5 -14.5 35.5v409h-81q-9 0 -15 6t-6 15v72q0 9 6 15t15 6h151q21 0 35.5 -14.5t14.5 -35.5v-409h81q9 0 15 -6t6 -15v-72q0 -9 -6 -15t-15 -6h-151q-21 0 -35.5 14.5zM42 640.5q-4 4.5 -4 9.5q0 4 3 8l80 99q7 9 19 9h112q12 0 19 -9l80 -99 q3 -4 3 -8q0 -5 -4 -9.5t-10 -4.5h-57q-6 0 -12 3t-12 7l-63 39l-62 -39q-6 -4 -12 -7t-12 -3h-58q-6 0 -10 4.5z" />
<glyph unicode="&#xef;" horiz-adv-x="396" d="M156.5 14.5q-14.5 14.5 -14.5 35.5v409h-81q-9 0 -15 6t-6 15v72q0 9 6 15t15 6h151q21 0 35.5 -14.5t14.5 -35.5v-409h81q9 0 15 -6t6 -15v-72q0 -9 -6 -15t-15 -6h-151q-21 0 -35.5 14.5zM25 642q-6 6 -6 15v88q0 9 6 15t15 6h78q9 0 15 -6t6 -15v-88q0 -9 -6 -15 t-15 -6h-78q-9 0 -15 6zM258 642q-6 6 -6 15v88q0 9 6 15t15 6h78q9 0 15 -6t6 -15v-88q0 -9 -6 -15t-15 -6h-78q-9 0 -15 6z" />
<glyph unicode="&#xf0;" horiz-adv-x="599" d="M531 332v-108q0 -65 -32 -119.5t-86.5 -86.5t-118.5 -32t-118.5 32t-86.5 86.5t-32 119.5v75q0 64 31.5 117.5t86.5 85t120 31.5q61 0 94 -21q-14 55 -56 91l-121 -64q-6 -2 -8 -2q-6 0 -10.5 4t-4.5 11v43q0 6 3.5 11.5t8.5 7.5l59 31q-41 13 -83 13q-11 0 -16 6.5 t-5 14.5v66q0 9 6 15t15 6q121 0 203 -58l105 56q4 2 8 2q16 0 16 -15v-42q0 -6 -3.5 -11.5t-8.5 -7.5l-61 -32q95 -114 95 -326zM413 304q0 50 -34.5 84.5t-84.5 34.5q-49 0 -84 -34.5t-35 -84.5v-85q0 -49 35 -84t84 -35q50 0 84.5 35t34.5 84v85z" />
<glyph unicode="&#xf1;" horiz-adv-x="617" d="M84 6q-6 6 -6 15v531q0 9 6 15t15 6h78q9 0 15 -6t6 -15v-47q28 38 66.5 59.5t84.5 21.5q57 0 102.5 -27t71.5 -75t26 -108v-355q0 -9 -6 -15t-15 -6h-78q-9 0 -15 6t-6 15v340q0 53 -27 81.5t-76 28.5q-59 0 -93.5 -38.5t-34.5 -105.5v-306q0 -9 -6 -15t-15 -6h-78 q-9 0 -15 6zM341.5 641.5q-20.5 5.5 -47.5 15.5q-39 15 -54 15q-31 0 -38 -22q-2 -6 -6 -8.5t-10 -1.5l-38 11q-13 3 -11 17q7 44 40 71.5t74 27.5q19 0 38.5 -5.5t46.5 -15.5q41 -15 56 -15q28 0 37 22q6 13 17 10l37 -11q13 -3 10 -19q-7 -42 -39.5 -69.5t-72.5 -27.5 q-19 0 -39.5 5.5z" />
<glyph unicode="&#xf2;" horiz-adv-x="592" d="M175.5 18.5q-54.5 31.5 -86.5 85.5t-32 117v131q0 63 32 117t86.5 85.5t119.5 31.5t119.5 -31.5t86.5 -85.5t32 -117v-131q0 -63 -32 -117t-86.5 -85.5t-119.5 -31.5t-119.5 31.5zM378.5 137.5q34.5 34.5 34.5 83.5v131q0 49 -34.5 83.5t-83.5 34.5t-83.5 -34.5 t-34.5 -83.5v-131q0 -49 34.5 -83.5t83.5 -34.5t83.5 34.5zM258 644l-103 96q-5 5 -5 11t4 10.5t11 4.5h108q6 0 12 -3.5t8 -9.5l45 -97q2 -4 2 -7q0 -6 -4 -9.5t-11 -3.5h-46q-13 0 -21 8z" />
<glyph unicode="&#xf3;" horiz-adv-x="592" d="M175.5 18.5q-54.5 31.5 -86.5 85.5t-32 117v131q0 63 32 117t86.5 85.5t119.5 31.5t119.5 -31.5t86.5 -85.5t32 -117v-131q0 -63 -32 -117t-86.5 -85.5t-119.5 -31.5t-119.5 31.5zM378.5 137.5q34.5 34.5 34.5 83.5v131q0 49 -34.5 83.5t-83.5 34.5t-83.5 -34.5 t-34.5 -83.5v-131q0 -49 34.5 -83.5t83.5 -34.5t83.5 34.5zM253.5 642q-4.5 6 -0.5 14l45 97q2 6 8 9.5t12 3.5h108q7 0 11 -4.5t4 -10.5t-5 -11l-103 -96q-8 -8 -21 -8h-46q-8 0 -12.5 6z" />
<glyph unicode="&#xf4;" horiz-adv-x="592" d="M175.5 18.5q-54.5 31.5 -86.5 85.5t-32 117v131q0 63 32 117t86.5 85.5t119.5 31.5t119.5 -31.5t86.5 -85.5t32 -117v-131q0 -63 -32 -117t-86.5 -85.5t-119.5 -31.5t-119.5 31.5zM378.5 137.5q34.5 34.5 34.5 83.5v131q0 49 -34.5 83.5t-83.5 34.5t-83.5 -34.5 t-34.5 -83.5v-131q0 -49 34.5 -83.5t83.5 -34.5t83.5 34.5zM142 640.5q-4 4.5 -4 9.5q0 4 3 8l80 99q7 9 19 9h112q12 0 19 -9l80 -99q3 -4 3 -8q0 -5 -4 -9.5t-10 -4.5h-57q-6 0 -12 3t-12 7l-63 39l-62 -39q-6 -4 -12 -7t-12 -3h-58q-6 0 -10 4.5z" />
<glyph unicode="&#xf5;" horiz-adv-x="592" d="M175.5 18.5q-54.5 31.5 -86.5 85.5t-32 117v131q0 63 32 117t86.5 85.5t119.5 31.5t119.5 -31.5t86.5 -85.5t32 -117v-131q0 -63 -32 -117t-86.5 -85.5t-119.5 -31.5t-119.5 31.5zM378.5 137.5q34.5 34.5 34.5 83.5v131q0 49 -34.5 83.5t-83.5 34.5t-83.5 -34.5 t-34.5 -83.5v-131q0 -49 34.5 -83.5t83.5 -34.5t83.5 34.5zM322.5 641.5q-20.5 5.5 -47.5 15.5q-39 15 -54 15q-31 0 -38 -22q-2 -6 -6 -8.5t-10 -1.5l-38 11q-13 3 -11 17q7 44 40 71.5t74 27.5q19 0 38.5 -5.5t46.5 -15.5q41 -15 56 -15q28 0 37 22q6 13 17 10l37 -11 q13 -3 10 -19q-7 -42 -39.5 -69.5t-72.5 -27.5q-19 0 -39.5 5.5z" />
<glyph unicode="&#xf6;" horiz-adv-x="592" d="M175.5 18.5q-54.5 31.5 -86.5 85.5t-32 117v131q0 63 32 117t86.5 85.5t119.5 31.5t119.5 -31.5t86.5 -85.5t32 -117v-131q0 -63 -32 -117t-86.5 -85.5t-119.5 -31.5t-119.5 31.5zM378.5 137.5q34.5 34.5 34.5 83.5v131q0 49 -34.5 83.5t-83.5 34.5t-83.5 -34.5 t-34.5 -83.5v-131q0 -49 34.5 -83.5t83.5 -34.5t83.5 34.5zM125 642q-6 6 -6 15v88q0 9 6 15t15 6h78q9 0 15 -6t6 -15v-88q0 -9 -6 -15t-15 -6h-78q-9 0 -15 6zM358 642q-6 6 -6 15v88q0 9 6 15t15 6h78q9 0 15 -6t6 -15v-88q0 -9 -6 -15t-15 -6h-78q-9 0 -15 6z" />
<glyph unicode="&#xf7;" horiz-adv-x="644" d="M268.5 445q-22.5 23 -22.5 53q0 29 22.5 51.5t51.5 22.5q31 0 53.5 -22t22.5 -52q0 -31 -22.5 -53.5t-53.5 -22.5q-29 0 -51.5 23zM63 265q-6 6 -6 15v58q0 9 6 15t15 6h486q9 0 15 -6t6 -15v-58q0 -9 -6 -15t-15 -6h-486q-9 0 -15 6zM268.5 69q-22.5 23 -22.5 53 q0 29 22.5 51.5t51.5 22.5q31 0 53.5 -22t22.5 -52q0 -31 -22.5 -53.5t-53.5 -22.5q-29 0 -51.5 23z" />
<glyph unicode="&#xf8;" horiz-adv-x="592" d="M508.5 454.5q24.5 -48.5 24.5 -102.5v-131q0 -63 -32 -117t-86.5 -85.5t-119.5 -31.5q-36 0 -71 11l-41 -102q-4 -12 -18 -12h-70q-4 0 -6.5 3t-0.5 8l58 144q-41 33 -65 80.5t-24 101.5v131q0 63 32 117t86.5 85.5t119.5 31.5q32 0 69 -10l48 117q4 12 18 12h69 q4 0 6.5 -3t0.5 -8l-64 -158q42 -33 66.5 -81.5zM195 158l125 309q-12 3 -25 3q-49 0 -83.5 -34.5t-34.5 -83.5v-131q0 -32 18 -63zM413 352q0 35 -19 65l-126 -311q13 -3 27 -3q49 0 83.5 34.5t34.5 83.5v131z" />
<glyph unicode="&#xf9;" horiz-adv-x="618" d="M163.5 14q-45.5 27 -71.5 75t-26 108v355q0 9 6 15t15 6h78q9 0 15 -6t6 -15v-340q0 -53 27 -81.5t76 -28.5q59 0 93.5 38.5t34.5 105.5v306q0 9 6 15t15 6h78q9 0 15 -6t6 -15v-531q0 -9 -6 -15t-15 -6h-78q-9 0 -15 6t-6 15v47q-28 -38 -66.5 -59.5t-84.5 -21.5 q-57 0 -102.5 27zM258 644l-103 96q-5 5 -5 11t4 10.5t11 4.5h108q6 0 12 -3.5t8 -9.5l45 -97q2 -4 2 -7q0 -6 -4 -9.5t-11 -3.5h-46q-13 0 -21 8z" />
<glyph unicode="&#xfa;" horiz-adv-x="618" d="M163.5 14q-45.5 27 -71.5 75t-26 108v355q0 9 6 15t15 6h78q9 0 15 -6t6 -15v-340q0 -53 27 -81.5t76 -28.5q59 0 93.5 38.5t34.5 105.5v306q0 9 6 15t15 6h78q9 0 15 -6t6 -15v-531q0 -9 -6 -15t-15 -6h-78q-9 0 -15 6t-6 15v47q-28 -38 -66.5 -59.5t-84.5 -21.5 q-57 0 -102.5 27zM253.5 642q-4.5 6 -0.5 14l45 97q2 6 8 9.5t12 3.5h108q7 0 11 -4.5t4 -10.5t-5 -11l-103 -96q-8 -8 -21 -8h-46q-8 0 -12.5 6z" />
<glyph unicode="&#xfb;" horiz-adv-x="618" d="M163.5 14q-45.5 27 -71.5 75t-26 108v355q0 9 6 15t15 6h78q9 0 15 -6t6 -15v-340q0 -53 27 -81.5t76 -28.5q59 0 93.5 38.5t34.5 105.5v306q0 9 6 15t15 6h78q9 0 15 -6t6 -15v-531q0 -9 -6 -15t-15 -6h-78q-9 0 -15 6t-6 15v47q-28 -38 -66.5 -59.5t-84.5 -21.5 q-57 0 -102.5 27zM142 640.5q-4 4.5 -4 9.5q0 4 3 8l80 99q7 9 19 9h112q12 0 19 -9l80 -99q3 -4 3 -8q0 -5 -4 -9.5t-10 -4.5h-57q-6 0 -12 3t-12 7l-63 39l-62 -39q-6 -4 -12 -7t-12 -3h-58q-6 0 -10 4.5z" />
<glyph unicode="&#xfc;" horiz-adv-x="618" d="M163.5 14q-45.5 27 -71.5 75t-26 108v355q0 9 6 15t15 6h78q9 0 15 -6t6 -15v-340q0 -53 27 -81.5t76 -28.5q59 0 93.5 38.5t34.5 105.5v306q0 9 6 15t15 6h78q9 0 15 -6t6 -15v-531q0 -9 -6 -15t-15 -6h-78q-9 0 -15 6t-6 15v47q-28 -38 -66.5 -59.5t-84.5 -21.5 q-57 0 -102.5 27zM125 642q-6 6 -6 15v88q0 9 6 15t15 6h78q9 0 15 -6t6 -15v-88q0 -9 -6 -15t-15 -6h-78q-9 0 -15 6zM358 642q-6 6 -6 15v88q0 9 6 15t15 6h78q9 0 15 -6t6 -15v-88q0 -9 -6 -15t-15 -6h-78q-9 0 -15 6z" />
<glyph unicode="&#xfd;" horiz-adv-x="569" d="M170 -184.5q-6 8.5 -2 19.5l52 148l-196 558q-2 6 -2 9q0 10 7 16.5t18 6.5h70q10 0 18.5 -6t11.5 -16l135 -399l135 399q3 10 11.5 16t18.5 6h65q11 0 18 -6.5t7 -16.5q0 -3 -2 -9l-251 -712q-4 -10 -12 -16t-19 -6h-66q-11 0 -17 8.5zM240.5 642q-4.5 6 -0.5 14l45 97 q2 6 8 9.5t12 3.5h108q7 0 11 -4.5t4 -10.5t-5 -11l-103 -96q-8 -8 -21 -8h-46q-8 0 -12.5 6z" />
<glyph unicode="&#xfe;" horiz-adv-x="614" d="M84 -187q-6 6 -6 15v917q0 9 6 15t15 6h65q9 0 15 -6t6 -15v-238q26 39 64.5 59t82.5 20q59 0 110.5 -31.5t82 -84.5t30.5 -114v-139q0 -61 -30 -114t-81 -84.5t-112 -31.5q-37 0 -71.5 15.5t-62.5 44.5v-219q0 -9 -6 -15t-15 -6h-78q-9 0 -15 6zM400.5 136.5 q34.5 34.5 34.5 83.5v133q0 49 -34.5 83.5t-83.5 34.5t-84 -34.5t-35 -83.5v-133q0 -49 35 -83.5t84 -34.5t83.5 34.5z" />
<glyph unicode="&#xff;" horiz-adv-x="569" d="M170 -184.5q-6 8.5 -2 19.5l52 148l-196 558q-2 6 -2 9q0 10 7 16.5t18 6.5h70q10 0 18.5 -6t11.5 -16l135 -399l135 399q3 10 11.5 16t18.5 6h65q11 0 18 -6.5t7 -16.5q0 -3 -2 -9l-251 -712q-4 -10 -12 -16t-19 -6h-66q-11 0 -17 8.5zM112 642q-6 6 -6 15v88q0 9 6 15 t15 6h78q9 0 15 -6t6 -15v-88q0 -9 -6 -15t-15 -6h-78q-9 0 -15 6zM345 642q-6 6 -6 15v88q0 9 6 15t15 6h78q9 0 15 -6t6 -15v-88q0 -9 -6 -15t-15 -6h-78q-9 0 -15 6z" />
<glyph unicode="&#x131;" horiz-adv-x="396" d="M156.5 14.5q-14.5 14.5 -14.5 35.5v409h-81q-9 0 -15 6t-6 15v72q0 9 6 15t15 6h151q21 0 35.5 -14.5t14.5 -35.5v-409h81q9 0 15 -6t6 -15v-72q0 -9 -6 -15t-15 -6h-151q-21 0 -35.5 14.5z" />
<glyph unicode="&#x152;" horiz-adv-x="844" d="M193 22.5q-61 35.5 -96.5 96t-35.5 132.5v213q0 72 35.5 132.5t96.5 96t133 35.5q40 0 82 -13h355q9 0 15 -6t6 -15v-75q0 -9 -6 -15t-15 -6h-262v-170h195q9 0 15 -6t6 -15v-71q0 -9 -6 -15t-15 -6h-195v-198h262q9 0 15 -6t6 -15v-75q0 -9 -6 -15t-15 -6h-354 q-42 -13 -83 -13q-72 0 -133 35.5zM379 115v485q-25 11 -53 11q-38 0 -71 -20t-52.5 -54t-19.5 -73v-213q0 -39 19.5 -73t52.5 -54t71 -20q26 0 53 11z" />
<glyph unicode="&#x153;" horiz-adv-x="941" d="M175.5 19q-54.5 32 -86.5 87t-32 120v121q0 65 32 120t86.5 87t119.5 32q52 0 98 -21t80 -59q34 38 80 59t98 21q65 0 119.5 -32t86.5 -87t32 -120v-67q0 -18 -12.5 -30.5t-30.5 -12.5h-313v-5q0 -49 34.5 -83.5t83.5 -34.5h159q9 0 15 -6t6 -15v-72q0 -9 -6 -15t-15 -6 h-159q-50 0 -94.5 19.5t-77.5 53.5q-34 -40 -82 -63t-102 -23q-65 0 -119.5 32zM769 345v9q0 49 -34.5 83.5t-83.5 34.5t-83.5 -34.5t-34.5 -83.5v-9h236zM378.5 137.5q34.5 34.5 34.5 83.5v131q0 49 -34.5 83.5t-83.5 34.5t-83.5 -34.5t-34.5 -83.5v-131q0 -49 34.5 -83.5 t83.5 -34.5t83.5 34.5z" />
<glyph unicode="&#x178;" horiz-adv-x="615" d="M252 6q-6 6 -6 15v306l-211 353q-4 5 -4 13q0 9 7 15.5t17 6.5h83q14 0 20 -11l148 -257h2l148 257q6 11 20 11h83q10 0 17 -6.5t7 -15.5q0 -8 -4 -13l-211 -353v-306q0 -9 -6 -15t-15 -6h-80q-9 0 -15 6zM138 779q-6 6 -6 15v88q0 9 6 15t15 6h78q9 0 15 -6t6 -15v-88 q0 -9 -6 -15t-15 -6h-78q-9 0 -15 6zM371 779q-6 6 -6 15v88q0 9 6 15t15 6h78q9 0 15 -6t6 -15v-88q0 -9 -6 -15t-15 -6h-78q-9 0 -15 6z" />
<glyph unicode="&#x2c6;" horiz-adv-x="583" d="M129 640.5q-4 4.5 -4 9.5q0 4 3 8l80 99q7 9 19 9h112q12 0 19 -9l80 -99q3 -4 3 -8q0 -5 -4 -9.5t-10 -4.5h-57q-6 0 -12 3t-12 7l-63 39l-62 -39q-6 -4 -12 -7t-12 -3h-58q-6 0 -10 4.5z" />
<glyph unicode="&#x2dc;" horiz-adv-x="581" d="M312.5 641.5q-20.5 5.5 -47.5 15.5q-39 15 -54 15q-31 0 -38 -22q-2 -6 -6 -8.5t-10 -1.5l-38 11q-13 3 -11 17q7 44 40 71.5t74 27.5q19 0 38.5 -5.5t46.5 -15.5q41 -15 56 -15q28 0 37 22q6 13 17 10l37 -11q13 -3 10 -19q-7 -42 -39.5 -69.5t-72.5 -27.5 q-19 0 -39.5 5.5z" />
<glyph unicode="&#x300;" d="M-296 644l-103 96q-5 5 -5 11t4 10.5t11 4.5h108q6 0 12 -3.5t8 -9.5l45 -97q2 -4 2 -7q0 -6 -4 -9.5t-11 -3.5h-46q-13 0 -21 8z" />
<glyph unicode="&#x301;" d="M-320.5 642q-4.5 6 -0.5 14l45 97q2 6 8 9.5t12 3.5h108q7 0 11 -4.5t4 -10.5t-5 -11l-103 -96q-8 -8 -21 -8h-46q-8 0 -12.5 6z" />
<glyph unicode="&#x302;" d="M-431 640.5q-4 4.5 -4 9.5q0 4 3 8l80 99q7 9 19 9h112q12 0 19 -9l80 -99q3 -4 3 -8q0 -5 -4 -9.5t-10 -4.5h-57q-6 0 -12 3t-12 7l-63 39l-62 -39q-6 -4 -12 -7t-12 -3h-58q-6 0 -10 4.5z" />
<glyph unicode="&#x303;" d="M-210.5 641.5q-20.5 5.5 -47.5 15.5q-39 15 -54 15q-31 0 -38 -22q-2 -6 -6 -8.5t-10 -1.5l-38 11q-13 3 -11 17q7 44 40 71.5t74 27.5q19 0 38.5 -5.5t46.5 -15.5q41 -15 56 -15q28 0 37 22q6 13 17 10l37 -11q13 -3 10 -19q-7 -42 -39.5 -69.5t-72.5 -27.5 q-19 0 -39.5 5.5z" />
<glyph unicode="&#x304;" d="M-425 665q-6 6 -6 15v55q0 9 6 15t15 6h262q9 0 15 -6t6 -15v-55q0 -9 -6 -15t-15 -6h-262q-9 0 -15 6z" />
<glyph unicode="&#x308;" d="M-451 642q-6 6 -6 15v88q0 9 6 15t15 6h78q9 0 15 -6t6 -15v-88q0 -9 -6 -15t-15 -6h-78q-9 0 -15 6zM-218 642q-6 6 -6 15v88q0 9 6 15t15 6h78q9 0 15 -6t6 -15v-88q0 -9 -6 -15t-15 -6h-78q-9 0 -15 6z" />
<glyph unicode="&#x30a;" d="M-336.5 648.5q-27.5 27.5 -27.5 66.5q0 40 27.5 67.5t67.5 27.5t67.5 -27.5t27.5 -67.5q0 -39 -27.5 -66.5t-67.5 -27.5t-67.5 27.5zM-247.5 694q9.5 9 9.5 21q0 13 -9.5 22t-21.5 9t-21.5 -9t-9.5 -22q0 -12 9.5 -21t21.5 -9t21.5 9z" />
<glyph unicode="&#x327;" d="M-334.5 -227q-5.5 4 -7.5 10l-17 43q-1 2 -1 6q0 9 11 14q17 5 29 20t12 41v13q0 7 4.5 12t11.5 5h65q10 0 16 -6t6 -15v-14q0 -50 -35 -83.5t-77 -48.5q-2 -1 -5 -1q-7 0 -12.5 4z" />
<glyph unicode="&#x2000;" horiz-adv-x="474" />
<glyph unicode="&#x2001;" horiz-adv-x="949" />
<glyph unicode="&#x2002;" horiz-adv-x="474" />
<glyph unicode="&#x2003;" horiz-adv-x="949" />
<glyph unicode="&#x2004;" horiz-adv-x="316" />
<glyph unicode="&#x2005;" horiz-adv-x="237" />
<glyph unicode="&#x2006;" horiz-adv-x="158" />
<glyph unicode="&#x2007;" horiz-adv-x="158" />
<glyph unicode="&#x2008;" horiz-adv-x="118" />
<glyph unicode="&#x2009;" horiz-adv-x="189" />
<glyph unicode="&#x200a;" horiz-adv-x="52" />
<glyph unicode="&#x2010;" horiz-adv-x="474" d="M84 256q-6 6 -6 15v74q0 9 6 15t15 6h273q9 0 15 -6t6 -15v-74q0 -9 -6 -15t-15 -6h-273q-9 0 -15 6z" />
<glyph unicode="&#x2011;" horiz-adv-x="474" d="M84 256q-6 6 -6 15v74q0 9 6 15t15 6h273q9 0 15 -6t6 -15v-74q0 -9 -6 -15t-15 -6h-273q-9 0 -15 6z" />
<glyph unicode="&#x2012;" horiz-adv-x="474" d="M84 256q-6 6 -6 15v74q0 9 6 15t15 6h273q9 0 15 -6t6 -15v-74q0 -9 -6 -15t-15 -6h-273q-9 0 -15 6z" />
<glyph unicode="&#x2013;" horiz-adv-x="755" d="M93 256q-6 6 -6 15v74q0 9 6 15t15 6h536q9 0 15 -6t6 -15v-74q0 -9 -6 -15t-15 -6h-536q-9 0 -15 6z" />
<glyph unicode="&#x2014;" horiz-adv-x="1039" d="M93 256q-6 6 -6 15v74q0 9 6 15t15 6h820q9 0 15 -6t6 -15v-74q0 -9 -6 -15t-15 -6h-820q-9 0 -15 6z" />
<glyph unicode="&#x2018;" horiz-adv-x="301" d="M54.5 451.5q-6.5 6.5 -6.5 14.5q0 6 3 12l116 237h64q11 0 17 -8t3 -18l-57 -225q-1 -8 -8.5 -13.5t-16.5 -5.5h-99q-9 0 -15.5 6.5z" />
<glyph unicode="&#x2019;" horiz-adv-x="302" d="M52 453q-6 8 -3 18l57 225q1 8 8.5 13.5t16.5 5.5h99q10 0 16 -6t6 -15q0 -6 -3 -12l-116 -237h-64q-11 0 -17 8z" />
<glyph unicode="&#x201a;" horiz-adv-x="302" d="M52 -159q-6 8 -3 18l57 225q1 8 8.5 13.5t16.5 5.5h99q10 0 16 -6t6 -15q0 -6 -3 -12l-116 -237h-64q-11 0 -17 8z" />
<glyph unicode="&#x201c;" horiz-adv-x="516" d="M54.5 451.5q-6.5 6.5 -6.5 14.5q0 6 3 12l116 237h64q11 0 17 -8t3 -18l-57 -225q-1 -8 -8.5 -13.5t-16.5 -5.5h-99q-9 0 -15.5 6.5zM269.5 451.5q-6.5 6.5 -6.5 14.5q0 6 3 12l116 237h64q11 0 17 -8t3 -18l-57 -225q-1 -8 -8.5 -13.5t-16.5 -5.5h-99q-9 0 -15.5 6.5z " />
<glyph unicode="&#x201d;" horiz-adv-x="517" d="M52 453q-6 8 -3 18l57 225q1 8 8.5 13.5t16.5 5.5h99q10 0 16 -6t6 -15q0 -6 -3 -12l-116 -237h-64q-11 0 -17 8zM267 453q-6 8 -3 18l57 225q1 8 8.5 13.5t16.5 5.5h99q10 0 16 -6t6 -15q0 -6 -3 -12l-116 -237h-64q-11 0 -17 8z" />
<glyph unicode="&#x201e;" horiz-adv-x="517" d="M52 -159q-6 8 -3 18l57 225q1 8 8.5 13.5t16.5 5.5h99q10 0 16 -6t6 -15q0 -6 -3 -12l-116 -237h-64q-11 0 -17 8zM267.5 -159q-6.5 8 -3.5 18l57 225q1 8 8.5 13.5t16.5 5.5h99q10 0 16 -6t6 -15q0 -6 -3 -12l-116 -237h-64q-10 0 -16.5 8z" />
<glyph unicode="&#x2022;" horiz-adv-x="445" d="M154 177q-31 18 -49 49t-18 67t18 67t49 49t67 18t67 -18t49 -49t18 -67t-18 -67t-49 -49t-67 -18t-67 18z" />
<glyph unicode="&#x2026;" horiz-adv-x="836" d="M76.5 0q-24.5 24 -24.5 59t24.5 59t59.5 24q34 0 58 -24.5t24 -58.5t-24 -58.5t-58 -24.5q-35 0 -59.5 24zM358.5 0q-24.5 24 -24.5 59t24.5 59t59.5 24q34 0 58 -24.5t24 -58.5t-24 -58.5t-58 -24.5q-35 0 -59.5 24zM640.5 0q-24.5 24 -24.5 59t24.5 59t59.5 24 q34 0 58 -24.5t24 -58.5t-24 -58.5t-58 -24.5q-35 0 -59.5 24z" />
<glyph unicode="&#x202f;" horiz-adv-x="189" />
<glyph unicode="&#x2039;" horiz-adv-x="310" d="M230 83l-182 138v118l182 138q7 5 13 5q7 0 12 -5.5t5 -14.5v-86q0 -12 -11 -20l-109 -76l109 -76q11 -8 11 -20v-86q0 -9 -5 -14.5t-12 -5.5q-6 0 -13 5z" />
<glyph unicode="&#x203a;" horiz-adv-x="310" d="M53 83.5q-5 5.5 -5 14.5v86q0 12 11 20l109 76l-109 76q-11 8 -11 20v86q0 9 5 14.5t12 5.5q6 0 13 -5l182 -138v-118l-182 -138q-7 -5 -13 -5q-7 0 -12 5.5z" />
<glyph unicode="&#x205f;" horiz-adv-x="237" />
<glyph unicode="&#x20ac;" horiz-adv-x="576" d="M525 88q6 -6 6 -15q0 -6 -5 -13q-32 -35 -75.5 -54t-91.5 -19q-63 0 -116.5 31.5t-84.5 85t-31 116.5v8h-55q-7 0 -12 5.5t-3 12.5l10 59q1 8 6.5 12.5t13.5 4.5h40v71h-55q-7 0 -12 5.5t-3 12.5l10 59q1 8 6.5 12.5t13.5 4.5h40v8q0 63 31 116.5t84.5 85t116.5 31.5 q48 0 91.5 -19t75.5 -54q5 -7 5 -13q0 -9 -6 -15l-41 -41q-6 -7 -15 -7q-10 0 -17 7q-38 38 -93 38q-52 0 -88 -36t-36 -88v-13h172q7 0 12 -5.5t3 -12.5l-10 -59q-1 -8 -6.5 -12.5t-13.5 -4.5h-157v-71h172q7 0 12 -5.5t3 -12.5l-10 -59q-1 -8 -6.5 -12.5t-13.5 -4.5h-157 v-13q0 -52 36 -88t88 -36q55 0 93 38q7 7 17 7q9 0 15 -7z" />
<glyph unicode="&#x2122;" horiz-adv-x="861" d="M170 336q-4 4 -4 10v293h-82q-6 0 -10 4t-4 10v48q0 6 4 10t10 4h243q6 0 10 -4t4 -10v-48q0 -6 -4 -10t-10 -4h-82v-293q0 -6 -4 -10t-10 -4h-51q-6 0 -10 4zM364.5 337q-4.5 5 -3.5 12l43 348q1 7 6.5 12.5t13.5 5.5h47q15 0 19 -13l88 -260l85 260q4 13 19 13h45 q8 0 13.5 -5t6.5 -13l42 -348v-2q0 -7 -4.5 -11t-10.5 -4h-44q-8 0 -14 5t-7 13l-23 196l-70 -201q-2 -6 -7.5 -9.5t-11.5 -3.5h-48q-6 0 -11.5 3.5t-7.5 9.5l-70 203l-20 -198q-1 -8 -7 -13t-14 -5h-43q-7 0 -11.5 5z" />
<glyph unicode="&#x25fc;" horiz-adv-x="575" d="M0 575h575v-575h-575v575z" />
</font>
</defs>
</svg>
